Al filo del mañana (2014) Full 1080p Latino

2.371 vistas
1 estrella2 estrellas3 estrellas4 estrellas5 estrellas (3 votos, promedio: 4,67 de 5)
Cargando…

Información de Al filo del mañana (2014) Full 1080p Latino

Datos de la película

  • Calidad: Full 1080p
  • Audio: Español Latino AC3 5.1 BLURAY - Ingles DTS 5.1 BLURAY
  • Subtitulos: Español Latino PGS - Ingles PGS
  • Resolución: 1920X1080
  • Formato: MKV
  • Codec: H.264
  • Encoder: Dpelis
  • Mediainfo: Clic para Mostrar Datos Ver
  • Format                                   : Matroska
    Format version                           : Version 4 / Version 2
    File size                                : 5.54 GiB
    Duration                                 : 1 h 53 min
    Overall bit rate                         : 6 984 kb/s
    Movie name                               : dpeliculashdmega.org
    Encoded date                             : UTC 2017-11-30 05:43:53 / UTC 2017-11-29T03:40:24Z
    Writing application                      : mkvmerge v15.0.0 ('Duel with the Devil') 64-bit
    Writing library                          : libebml v1.3.5 + libmatroska v1.4.5 / Lavf57.7.2

    Video
    ID                                       : 1
    Format                                   : AVC
    Format/Info                              : Advanced Video Codec
    Format profile                           : High@L4.1
    Format settings                          : CABAC / 4 Ref Frames
    Format settings, CABAC                   : Yes
    Format settings, RefFrames               : 4 frames
    Codec ID                                 : V_MPEG4/ISO/AVC
    Duration                                 : 1 h 53 min
    Bit rate                                 : 4 696 kb/s
    Width                                    : 1 920 pixels
    Height                                   : 1 080 pixels
    Display aspect ratio                     : 16:9
    Frame rate mode                          : Constant
    Frame rate                               : 23.976 (24000/1001) FPS
    Color space                              : YUV
    Chroma subsampling                       : 4:2:0
    Bit depth                                : 8 bits
    Scan type                                : Progressive
    Bits/(Pixel*Frame)                       : 0.094
    Stream size                              : 3.72 GiB (67%)
    Title                                    : Al filo del mañana (2014) Full 1080p Latino
    Writing library                          : x264 core 148 r2708 86b7198
    Encoding settings                        : cabac=1 / ref=4 / deblock=1:0:0 / analyse=0x3:0x133 / me=esa / subme=10 / psy=1 / psy_rd=1.00:0.00 / mixed_ref=1 / me_range=24 / chroma_me=1 / trellis=2 / 8x8dct=1 / cqm=0 / deadzone=21,11 / fast_pskip=1 / chroma_qp_offset=-2 / threads=34 / lookahead_threads=5 / sliced_threads=0 / nr=0 / decimate=1 / interlaced=0 / bluray_compat=0 / constrained_intra=0 / bframes=8 / b_pyramid=2 / b_adapt=2 / b_bias=0 / direct=3 / weightb=1 / open_gop=0 / weightp=2 / keyint=240 / keyint_min=24 / scenecut=40 / intra_refresh=0 / rc_lookahead=60 / rc=crf / mbtree=1 / crf=20.0 / qcomp=0.60 / qpmin=0 / qpmax=69 / qpstep=4 / vbv_maxrate=62500 / vbv_bufsize=78125 / crf_max=0.0 / nal_hrd=none / filler=0 / ip_ratio=1.40 / aq=1:1.00
    Language                                 : English
    Default                                  : Yes
    Forced                                   : No
    Color range                              : Limited
    Color primaries                          : BT.709
    Transfer characteristics                 : BT.709
    Matrix coefficients                      : BT.709
    Statistics Tags Issue                    : mkvmerge v15.0.0 ('Duel with the Devil') 64-bit 2017-11-30 05:43:53 / mkvmerge v15.0.0 ('Duel with the Devil') 64-bit 2017-11-30 05:43:53 / UTC 2017-11-29T03:40:24Z
    FromStats_BitRate                        : 4804970
    FromStats_Duration                       : 01:53:29.428000000
    FromStats_FrameCount                     : 163263
    FromStats_StreamSize                     : 4089887575

    Audio #1
    ID                                       : 2
    Format                                   : AC-3
    Format/Info                              : Audio Coding 3
    Format settings, Endianness              : Big
    Codec ID                                 : A_AC3
    Duration                                 : 1 h 53 min
    Bit rate mode                            : Constant
    Bit rate                                 : 640 kb/s
    Channel(s)                               : 6 channels
    Channel positions                        : Front: L C R, Side: L R, LFE
    Sampling rate                            : 48.0 kHz
    Frame rate                               : 31.250 FPS (1536 SPF)
    Bit depth                                : 16 bits
    Compression mode                         : Lossy
    Stream size                              : 520 MiB (9%)
    Title                                    : Latino-AC3
    Language                                 : Spanish
    Service kind                             : Complete Main
    Default                                  : Yes
    Forced                                   : Yes
    Statistics Tags Issue                    : mkvmerge v15.0.0 ('Duel with the Devil') 64-bit 2017-11-30 05:43:53 / mkvmerge v15.0.0 ('Duel with the Devil') 64-bit 2017-11-30 05:43:53 / UTC 2017-11-29T03:40:24Z
    FromStats_BitRate                        : 640000
    FromStats_Duration                       : 01:53:29.472000000
    FromStats_FrameCount                     : 212796
    FromStats_StreamSize                     : 544757760

    Audio #2
    ID                                       : 3
    Format                                   : DTS
    Format/Info                              : Digital Theater Systems
    Mode                                     : 16
    Format settings, Endianness              : Big
    Codec ID                                 : A_DTS
    Duration                                 : 1 h 53 min
    Bit rate mode                            : Constant
    Bit rate                                 : 1 509 kb/s
    Channel(s)                               : 6 channels
    Channel positions                        : Front: L C R, Side: L R, LFE
    Sampling rate                            : 48.0 kHz
    Frame rate                               : 93.750 FPS (512 SPF)
    Bit depth                                : 24 bits
    Compression mode                         : Lossy
    Stream size                              : 1.20 GiB (22%)
    Title                                    : Ingles-AC3
    Language                                 : English
    Default                                  : No
    Forced                                   : No
    Statistics Tags Issue                    : mkvmerge v15.0.0 ('Duel with the Devil') 64-bit 2017-11-30 05:43:53 / mkvmerge v15.0.0 ('Duel with the Devil') 64-bit 2017-11-30 05:43:53 / UTC 2017-11-29T03:40:24Z
    FromStats_BitRate                        : 1508999
    FromStats_Duration                       : 01:53:29.462000000
    FromStats_FrameCount                     : 638387
    FromStats_StreamSize                     : 1284434644

    Text #1
    ID                                       : 4
    Format                                   : PGS
    Muxing mode                              : zlib
    Codec ID                                 : S_HDMV/PGS
    Codec ID/Info                            : Picture based subtitle format used on BDs/HD-DVDs
    Language                                 : English
    Default                                  : No
    Forced                                   : No
    Statistics Tags Issue                    : mkvmerge v15.0.0 ('Duel with the Devil') 64-bit 2017-11-30 05:43:53 / mkvmerge v15.0.0 ('Duel with the Devil') 64-bit 2017-11-30 05:43:53 / UTC 2017-11-29T03:40:24Z
    FromStats_BitRate                        : 31704
    FromStats_Duration                       : 01:53:11.618000000
    FromStats_FrameCount                     : 3021
    FromStats_StreamSize                     : 26915819

    Text #2
    ID                                       : 5
    Format                                   : PGS
    Muxing mode                              : zlib
    Codec ID                                 : S_HDMV/PGS
    Codec ID/Info                            : Picture based subtitle format used on BDs/HD-DVDs
    Language                                 : Spanish
    Default                                  : No
    Forced                                   : No
    Statistics Tags Issue                    : mkvmerge v15.0.0 ('Duel with the Devil') 64-bit 2017-11-30 05:43:53 / mkvmerge v15.0.0 ('Duel with the Devil') 64-bit 2017-11-30 05:43:53 / UTC 2017-11-29T03:40:24Z
    FromStats_BitRate                        : 28699
    FromStats_Duration                       : 01:52:49.596000000
    FromStats_FrameCount                     : 2874
    FromStats_StreamSize                     : 24285882

    Menu
    00:00:00.000                             : :Chapter 1
    00:10:28.169                             : :Chapter 2
    00:17:39.100                             : :Chapter 3
    00:24:50.197                             : :Chapter 4
    00:35:57.947                             : :Chapter 5
    00:46:27.285                             : :Chapter 6
    00:54:34.772                             : :Chapter 7
    01:04:59.562                             : :Chapter 8
    01:12:53.077                             : :Chapter 9
    01:23:08.901                             : :Chapter 10
    01:32:34.132                             : :Chapter 11
    01:42:53.584                             : :Chapter 12
    01:45:46.215                             : :Chapter 13

  • Peso: 5.54 GiB

Sinopsis

En un futuro no muy lejano, invade la Tierra una raza de extraterrestres invencibles. Al comandante William Cage, un oficial que nunca ha entrado en combate, le encargan una misión casi suicida y resulta muerto. Entra entonces en un bucle temporal, en el que se ve obligado a luchar y morir una y otra vez. Pero las múltiples batallas que libra lo hacen cada vez más hábil y eficaz en su lucha contra los alienígenas. Su compañera de combate es Rita Vrataski, una guerrera de las Fuerzas Especiales. Adaptación del manga de Hiroshi Sakurazaka.

Ficha técnica

Video trailer de la película

Enlaces de descarga

Rip de Bluray

Descargar Al filo del mañana (2014) Full 1080p Latino




Aportes de DPeliculasHDmega la pass es:dpeliculashdmega.org Aportes de CinemaniaHD la pass es:cinemaniahdd.com

Películas relacionadas

  • Rescate suicida (2016) WEB-DL 1080p Latino

    2016
    Rescate suicida (2016) WEB-DL 1080p Latino

    1.0 2h 18m 2016

    Un joven piloto es despedido de la fuerza aérea militar después de desobedecer una orden absurda; consigue...

    Director: Nikolay Lebedev

    Género: Acción

    Actores: Vladimir Mashkov

  • La Balada de Lefty Brown (2017) Full 1080p Latino

    2017
    La Balada de Lefty Brown (2017) Full 1080p Latino

    1.0 1h 51m 2017

    Descargar La Balada de Lefty Brown (2017) Full 1080p Latino; Mega, Google Drive. Durante décadas, Lefty...

    Director: Jared Moshé

    Género: FULL 1080p Plateadas

    Actores: Tyson Gerhardt

  • El reverendo (2017) Full 1080p Latino

    2018
    El reverendo (2017) Full 1080p Latino

    1.0 1h 53m 2018

    Descargar El reverendo [First Reformed] (2017) 1080p Latino; Mega, Google Drive. El encuentro con un...

    Director: Paul Schrader

    Género: Drama

    Actores: Victoria Hill

  • La brújula dorada (2007) Full 1080p Latino

    2007
    La brújula dorada (2007) Full 1080p Latino

    5.0 1h 53m 2007

    Descargar La brújula dorada (2007) Full 1080p Latino; Mega, Google Drive. Historia de una niña de 12...

    Director: Nikki Clapp

    Género: Aventura

    Actores: Tom Courtenay

  • El séptimo hijo (2014) Full 1080p Latino

    2014
    El séptimo hijo (2014) Full 1080p Latino

    4.4 1h 42m 2014

    Siglo XVIII. El joven Thomas (Ben Barnes, 'El retrato de Dorian Gray') tendrá que aprender a ser mago...

    Director: Sergei Bodrov

    Género: Aventura

    Actores: Zahf Paroo

Comentarios 5
  • Jhefferson - 13 diciembre, 2017

    perdon por las molestias y el comentario anterior para comentar que ya logre descomprimir era problema mio le di mostrar contraseña para ver si era que la estaba copeando mal y efectivamente le faltaba una letra a la contraseña no estaba colocando la letra E, al final pude descomprimirla con la contraseña: dpeliculashdmega.org Muchas gracias 😀

    • dpelis - 13 diciembre, 2017

      nos alegra, saludos

  • Jhefferson - 13 diciembre, 2017

    Hola, no me funciona ninguna contraseña ni cinemaniahdd.net ni dpeliculashdmega.org pero veo que soy el unico que a comentado este problema entonces si no esla contraseña que podria ser nunca me habia pasado algo similar con otras peliculas de la pagina

  • sheko - 30 noviembre, 2017

    genial esta la esperaba gracias; ¿seguiran con sus aportes en 4k???

    • Dpelis2 - 30 noviembre, 2017

      Mas adelante las 4K