Acts of Violence (2018) 1080p Latino

1.720 vistas
1 estrella2 estrellas3 estrellas4 estrellas5 estrellas (4 votos, promedio: 3,75 de 5)
Cargando…

Información de Acts of Violence (2018) 1080p Latino

Datos de la película

  • Calidad: 1080p
  • Audio: Español Latino AC3 2.0 DVD - Ingles AC3 5.1 BLURAY
  • Subtitulos: Español Latino SRT
  • Resolución: 1920x808p
  • Formato: MKV
  • Codec: H.264
  • Encoder: Dracarys
  • Mediainfo: Clic para Mostrar Datos Ver
  • Format                                   : Matroska
    Format version                           : Version 4 / Version 2
    File size                                : 2.89 GiB
    Duration                                 : 1 h 32 min
    Overall bit rate                         : 4 477 kb/s
    Movie name                               : CinemaniaHDD.net
    Encoded date                             : UTC 2018-05-31 19:52:45 / UTC 2018-05-31T06:24:14Z
    Writing application                      : mkvmerge v15.0.0 ('Duel with the Devil') 64-bit
    Writing library                          : libebml v1.3.5 + libmatroska v1.4.5 / Lavf57.7.2

    Video
    ID                                       : 1
    Format                                   : AVC
    Format/Info                              : Advanced Video Codec
    Format profile                           : High@L4.1
    Format settings                          : CABAC / 5 Ref Frames
    Format settings, CABAC                   : Yes
    Format settings, RefFrames               : 5 frames
    Codec ID                                 : V_MPEG4/ISO/AVC
    Duration                                 : 1 h 32 min
    Bit rate                                 : 3 300 kb/s
    Nominal bit rate                         : 3 500 kb/s
    Width                                    : 1 920 pixels
    Height                                   : 808 pixels
    Display aspect ratio                     : 2.40:1
    Frame rate mode                          : Constant
    Frame rate                               : 23.976 (24000/1001) FPS
    Color space                              : YUV
    Chroma subsampling                       : 4:2:0
    Bit depth                                : 8 bits
    Scan type                                : Progressive
    Bits/(Pixel*Frame)                       : 0.089
    Stream size                              : 2.13 GiB (74%)
    Title                                    : Acts of Violence (2018) 1080p Latino
    Writing library                          : x264 core 148 r2708 86b7198
    Encoding settings                        : cabac=1 / ref=5 / deblock=1:0:0 / analyse=0x3:0x113 / me=umh / subme=8 / psy=1 / psy_rd=1.00:0.00 / mixed_ref=1 / me_range=16 / chroma_me=1 / trellis=1 / 8x8dct=1 / cqm=0 / deadzone=21,11 / fast_pskip=1 / chroma_qp_offset=-2 / threads=25 / lookahead_threads=4 / sliced_threads=0 / nr=0 / decimate=1 / interlaced=0 / bluray_compat=0 / constrained_intra=0 / bframes=3 / b_pyramid=2 / b_adapt=2 / b_bias=0 / direct=3 / weightb=1 / open_gop=0 / weightp=2 / keyint=240 / keyint_min=24 / scenecut=40 / intra_refresh=0 / rc_lookahead=50 / rc=abr / mbtree=1 / bitrate=3500 / ratetol=1.0 / qcomp=0.60 / qpmin=0 / qpmax=69 / qpstep=4 / vbv_maxrate=62500 / vbv_bufsize=78125 / nal_hrd=none / filler=0 / ip_ratio=1.40 / aq=1:1.00
    Language                                 : English
    Default                                  : Yes
    Forced                                   : No
    Color range                              : Limited
    Color primaries                          : BT.709
    Transfer characteristics                 : BT.709
    Matrix coefficients                      : BT.709
    Statistics Tags Issue                    : mkvmerge v15.0.0 ('Duel with the Devil') 64-bit 2018-05-31 19:52:45 / mkvmerge v15.0.0 ('Duel with the Devil') 64-bit 2018-05-31 19:52:45 / UTC 2018-05-31T06:24:14Z
    FromStats_BitRate                        : 3387162
    FromStats_Duration                       : 01:32:30.087000000
    FromStats_FrameCount                     : 133069
    FromStats_StreamSize                     : 2349881019

    Audio #1
    ID                                       : 2
    Format                                   : AC-3
    Format/Info                              : Audio Coding 3
    Format settings, Endianness              : Big
    Codec ID                                 : A_AC3
    Duration                                 : 1 h 32 min
    Bit rate mode                            : Constant
    Bit rate                                 : 448 kb/s
    Channel(s)                               : 2 channels
    Channel positions                        : Front: L R
    Sampling rate                            : 48.0 kHz
    Frame rate                               : 31.250 FPS (1536 SPF)
    Bit depth                                : 16 bits
    Compression mode                         : Lossy
    Delay relative to video                  : -5 ms
    Stream size                              : 296 MiB (10%)
    Language                                 : Spanish
    Service kind                             : Complete Main
    Default                                  : Yes
    Forced                                   : No
    Statistics Tags Issue                    : mkvmerge v15.0.0 ('Duel with the Devil') 64-bit 2018-05-31 19:52:45 / mkvmerge v15.0.0 ('Duel with the Devil') 64-bit 2018-05-31 19:52:45 / UTC 2018-05-31T06:24:14Z
    FromStats_BitRate                        : 448000
    FromStats_Duration                       : 01:32:30.048000000
    FromStats_FrameCount                     : 173439
    FromStats_StreamSize                     : 310802688

    Audio #2
    ID                                       : 3
    Format                                   : AC-3
    Format/Info                              : Audio Coding 3
    Format settings, Endianness              : Big
    Codec ID                                 : A_AC3
    Duration                                 : 1 h 32 min
    Bit rate mode                            : Constant
    Bit rate                                 : 640 kb/s
    Channel(s)                               : 6 channels
    Channel positions                        : Front: L C R, Side: L R, LFE
    Sampling rate                            : 48.0 kHz
    Frame rate                               : 31.250 FPS (1536 SPF)
    Bit depth                                : 16 bits
    Compression mode                         : Lossy
    Delay relative to video                  : -5 ms
    Stream size                              : 423 MiB (14%)
    Language                                 : English
    Service kind                             : Complete Main
    Default                                  : No
    Forced                                   : No
    Statistics Tags Issue                    : mkvmerge v15.0.0 ('Duel with the Devil') 64-bit 2018-05-31 19:52:45 / mkvmerge v15.0.0 ('Duel with the Devil') 64-bit 2018-05-31 19:52:45 / UTC 2018-05-31T06:24:14Z
    FromStats_BitRate                        : 640000
    FromStats_Duration                       : 01:32:30.080000000
    FromStats_FrameCount                     : 173440
    FromStats_StreamSize                     : 444006400

    Text
    ID                                       : 4
    Format                                   : UTF-8
    Codec ID                                 : S_TEXT/UTF8
    Codec ID/Info                            : UTF-8 Plain Text
    Language                                 : Spanish
    Default                                  : No
    Forced                                   : No
    Statistics Tags Issue                    : mkvmerge v15.0.0 ('Duel with the Devil') 64-bit 2018-05-31 19:52:45 / mkvmerge v15.0.0 ('Duel with the Devil') 64-bit 2018-05-31 19:52:45 / UTC 2018-05-31T06:24:14Z
    FromStats_BitRate                        : 44
    FromStats_Duration                       : 01:26:23.767000000
    FromStats_FrameCount                     : 982
    FromStats_StreamSize                     : 28665

    Menu
    00:00:00.000                             : :00:00:00.000
    00:05:20.737                             : :00:05:20.695
    00:10:26.334                             : :00:10:26.292
    00:16:24.525                             : :00:16:24.442
    00:22:07.159                             : :00:22:07.159
    00:27:41.326                             : :00:27:41.243
    00:33:54.407                             : :00:33:54.407
    00:38:53.790                             : :00:38:53.748
    00:44:17.321                             : :00:44:17.321
    00:51:44.143                             : :00:51:44.143
    00:55:59.022                             : :00:55:59.022
    00:58:48.525                             : :00:58:48.442
    01:02:14.189                             : :01:02:14.147
    01:07:48.523                             : :01:07:48.523
    01:12:07.323                             : :01:12:07.323
    01:26:32.896                             : :01:26:32.771

  • Peso: 2.89 GiB

Sinopsis

Cuando su prometida es secuestrada por traficantes de personas, Roman y sus ex hermanos militares se propusieron rastrearla y salvarla antes de que sea demasiado tarde. En el camino, Roman se asocia con Avery, un policía que investiga la trata de personas y lucha contra la corrupta burocracia que tiene intenciones dañinas.

Ficha técnica

  • Titulo original: Acts of Violence
  • Fecha de lanzamiento: 12-01-2018 (Canada, United States of America)
  • Director: Brett Donowho
  • Género: Acción, Drama
  • Puntuación: 3.8 4 votos
  • Duración:
    1h 26m

Video trailer de la película

Enlaces de descarga

Rip de Bluray

Descargar Acts of Violence (2018) 1080p Latino




Aportes de DPeliculasHDmega la pass es:dpeliculashdmega.org Aportes de CinemaniaHD la pass es:cinemaniahdd.com
Guardado en : Acción , Drama

Películas relacionadas

Comentarios 0