Actos De Venganza (2017) Full 1080p Latino

914 vistas
1 estrella2 estrellas3 estrellas4 estrellas5 estrellas (2 votos, promedio: 5,00 de 5)
Cargando…

Información de Actos De Venganza (2017) Full 1080p Latino

Datos de la película

  • Calidad: Full 1080p
  • Audio: Español Latino AC3 2.0 Netflix - Ingles DTS 5.1 BURAY
  • Subtitulos: Español Latino PGS - Ingles PGS
  • Resolución: 1920X1080p
  • Formato: MKV
  • Codec: H.264
  • Encoder: Dracarys
  • Mediainfo: Clic para Mostrar Datos Ver
  • Format                                   : Matroska
    Format version                           : Version 4 / Version 2
    File size                                : 3.71 GiB
    Duration                                 : 1 h 27 min
    Overall bit rate                         : 6 074 kb/s
    Movie name                               : CinemaniaHDD.com
    Encoded date                             : UTC 2018-02-21 03:55:19 / UTC 2018-02-02T15:57:29Z
    Writing application                      : mkvmerge v15.0.0 ('Duel with the Devil') 64-bit
    Writing library                          : libebml v1.3.5 + libmatroska v1.4.5 / Lavf57.7.2

    Video
    ID                                       : 1
    Format                                   : AVC
    Format/Info                              : Advanced Video Codec
    Format profile                           : High@L4.1
    Format settings                          : CABAC / 4 Ref Frames
    Format settings, CABAC                   : Yes
    Format settings, RefFrames               : 4 frames
    Codec ID                                 : V_MPEG4/ISO/AVC
    Duration                                 : 1 h 27 min
    Bit rate                                 : 4 252 kb/s
    Width                                    : 1 920 pixels
    Height                                   : 1 080 pixels
    Display aspect ratio                     : 16:9
    Frame rate mode                          : Constant
    Frame rate                               : 23.976 (24000/1001) FPS
    Color space                              : YUV
    Chroma subsampling                       : 4:2:0
    Bit depth                                : 8 bits
    Scan type                                : Progressive
    Bits/(Pixel*Frame)                       : 0.086
    Stream size                              : 2.60 GiB (70%)
    Title                                    : Actos De Venganza (2017) Full 1080p Latino
    Writing library                          : x264 core 148 r2708 86b7198
    Encoding settings                        : cabac=1 / ref=4 / deblock=1:0:0 / analyse=0x3:0x133 / me=esa / subme=10 / psy=1 / psy_rd=1.00:0.00 / mixed_ref=1 / me_range=24 / chroma_me=1 / trellis=2 / 8x8dct=1 / cqm=0 / deadzone=21,11 / fast_pskip=1 / chroma_qp_offset=-2 / threads=34 / lookahead_threads=5 / sliced_threads=0 / nr=0 / decimate=1 / interlaced=0 / bluray_compat=0 / constrained_intra=0 / bframes=8 / b_pyramid=2 / b_adapt=2 / b_bias=0 / direct=3 / weightb=1 / open_gop=0 / weightp=2 / keyint=240 / keyint_min=24 / scenecut=40 / intra_refresh=0 / rc_lookahead=60 / rc=crf / mbtree=1 / crf=20.0 / qcomp=0.60 / qpmin=0 / qpmax=69 / qpstep=4 / vbv_maxrate=62500 / vbv_bufsize=78125 / crf_max=0.0 / nal_hrd=none / filler=0 / ip_ratio=1.40 / aq=1:1.00
    Language                                 : English
    Default                                  : Yes
    Forced                                   : No
    Color range                              : Limited
    Color primaries                          : BT.709
    Transfer characteristics                 : BT.709
    Matrix coefficients                      : BT.709
    Statistics Tags Issue                    : mkvmerge v15.0.0 ('Duel with the Devil') 64-bit 2018-02-21 03:55:19 / mkvmerge v15.0.0 ('Duel with the Devil') 64-bit 2018-02-21 03:55:19 / UTC 2018-02-02T15:57:29Z
    FromStats_BitRate                        : 4369668
    FromStats_Duration                       : 01:27:20.277000000
    FromStats_FrameCount                     : 125641
    FromStats_StreamSize                     : 2862284192

    Audio #1
    ID                                       : 2
    Format                                   : AC-3
    Format/Info                              : Audio Coding 3
    Format settings, Endianness              : Big
    Codec ID                                 : A_AC3
    Duration                                 : 1 h 27 min
    Bit rate mode                            : Constant
    Bit rate                                 : 192 kb/s
    Channel(s)                               : 2 channels
    Channel positions                        : Front: L R
    Sampling rate                            : 48.0 kHz
    Frame rate                               : 31.250 FPS (1536 SPF)
    Bit depth                                : 16 bits
    Compression mode                         : Lossy
    Delay relative to video                  : 12 ms
    Stream size                              : 120 MiB (3%)
    Language                                 : Spanish
    Service kind                             : Complete Main
    Default                                  : Yes
    Forced                                   : No
    Statistics Tags Issue                    : mkvmerge v15.0.0 ('Duel with the Devil') 64-bit 2018-02-21 03:55:19 / mkvmerge v15.0.0 ('Duel with the Devil') 64-bit 2018-02-21 03:55:19 / UTC 2018-02-02T15:57:29Z
    FromStats_BitRate                        : 192000
    FromStats_Duration                       : 01:27:25.984000000
    FromStats_FrameCount                     : 163937
    FromStats_StreamSize                     : 125903616

    Audio #2
    ID                                       : 3
    Format                                   : DTS
    Format/Info                              : Digital Theater Systems
    Mode                                     : 16
    Format settings, Endianness              : Big
    Codec ID                                 : A_DTS
    Duration                                 : 1 h 27 min
    Bit rate mode                            : Constant
    Bit rate                                 : 1 509 kb/s
    Channel(s)                               : 6 channels
    Channel positions                        : Front: L C R, Side: L R, LFE
    Sampling rate                            : 48.0 kHz
    Frame rate                               : 93.750 FPS (512 SPF)
    Bit depth                                : 24 bits
    Compression mode                         : Lossy
    Stream size                              : 944 MiB (25%)
    Language                                 : English
    Default                                  : No
    Forced                                   : No
    Statistics Tags Issue                    : mkvmerge v15.0.0 ('Duel with the Devil') 64-bit 2018-02-21 03:55:19 / mkvmerge v15.0.0 ('Duel with the Devil') 64-bit 2018-02-21 03:55:19 / UTC 2018-02-02T15:57:29Z
    FromStats_BitRate                        : 1508999
    FromStats_Duration                       : 01:27:20.235000000
    FromStats_FrameCount                     : 491272
    FromStats_StreamSize                     : 988439264

    Text #1
    ID                                       : 4
    Format                                   : PGS
    Muxing mode                              : zlib
    Codec ID                                 : S_HDMV/PGS
    Codec ID/Info                            : Picture based subtitle format used on BDs/HD-DVDs
    Language                                 : English
    Default                                  : No
    Forced                                   : No
    Statistics Tags Issue                    : mkvmerge v15.0.0 ('Duel with the Devil') 64-bit 2018-02-21 03:55:19 / mkvmerge v15.0.0 ('Duel with the Devil') 64-bit 2018-02-21 03:55:19 / UTC 2018-02-02T15:57:29Z
    FromStats_BitRate                        : 18535
    FromStats_Duration                       : 01:21:19.833000000
    FromStats_FrameCount                     : 1348
    FromStats_StreamSize                     : 11306208

    Text #2
    ID                                       : 5
    Format                                   : PGS
    Muxing mode                              : zlib
    Codec ID                                 : S_HDMV/PGS
    Codec ID/Info                            : Picture based subtitle format used on BDs/HD-DVDs
    Language                                 : Spanish
    Default                                  : No
    Forced                                   : No
    Statistics Tags Issue                    : mkvmerge v15.0.0 ('Duel with the Devil') 64-bit 2018-02-21 03:55:19 / mkvmerge v15.0.0 ('Duel with the Devil') 64-bit 2018-02-21 03:55:19 / UTC 2018-02-02T15:57:29Z
    FromStats_BitRate                        : 15514
    FromStats_Duration                       : 01:23:05.564000000
    FromStats_FrameCount                     : 1052
    FromStats_StreamSize                     : 9668764

    Menu
    00:00:00.000                             : :Chapter 1
    00:05:16.316                             : :Chapter 2
    00:11:00.451                             : :Chapter 3
    00:17:49.318                             : :Chapter 4
    00:24:11.450                             : :Chapter 5
    00:29:07.037                             : :Chapter 6
    00:35:14.654                             : :Chapter 7
    00:39:12.308                             : :Chapter 8
    00:46:29.287                             : :Chapter 9
    00:52:56.632                             : :Chapter 10
    01:00:37.634                             : :Chapter 11
    01:05:28.133                             : :Chapter 12
    01:09:15.902                             : :Chapter 13
    01:13:51.969                             : :Chapter 14
    01:21:32.596                             : :Chapter 15
    01:23:56.114                             : :Chapter 16

  • Peso: 3.71 GiB

Sinopsis

Antonio Banderas se meterá en la piel de un abogado que sufre un tremendo trauma al perder a su mujer y su hija. Desde ese momento su vida sufrirá un giro de 360 grados que le hará refugiarse en el alcohol y guardar voto de silencio para poder hacer justicia y encontrar al asesino de su familia. No descansará hasta conocer la verdad de este suceso que le hará transformarse en otra persona.

Esta película de acción está dirigida por Isaac Florentine (Invicto 3, Ninja), protagonizada por Antonio Banderas (Mercenarios 3, La piel que habito). También podremos disfrutar de las interpretaciones de Paz Vega (Los amantes pasajeros, Spanglish), Karl Urban (Star trek, El mito de Bourne), Robert Foster (El caso Slevin), Cristina Serafini (Il divo) y Atanas Srebrev (300: El origen de un imperio, The Code).

Ficha técnica

Video trailer de la película

Enlaces de descarga

Rip de Bluray

Descargar Actos De Venganza (2017) Full 1080p Latino




Aportes de DPeliculasHDmega la pass es:dpeliculashdmega.org Aportes de CinemaniaHD la pass es:cinemaniahdd.com

Películas relacionadas

  • Tully (2018) 1080p Latino

    2018
    Tully (2018) 1080p Latino

    0.0 1 h 35 min 2018

    La historia de una mujer con tres hijos que, incapaz de lidiar con su bebé recién nacido, contrata...

    Director: Jason Reitman

    Género: Comedia

    Actores: Stormy Ent

  • Si solo pudiera imaginar (2018) Full 1080p Latino

    2018
    Si solo pudiera imaginar (2018) Full 1080p Latino

    5.0 1 h 50 min 2018

    La historia real de la aclamada canción "I Can Only Imagine", la canción cristiana contemporánea más...

    Director: Jon Erwin

    Género: Drama

    Actores: Trace Adkins

  • El Justiciero (2014) Full 1080p Latino

    2014
    El Justiciero (2014) Full 1080p Latino

    4.0 2 h 12 min 2014

    Robert McCall, un antiguo agente de la CIA que lleva ahora una vida tranquila, abandona su retiro para...

    Director: Deirdre Horgan

    Género: Acción

    Actores: Yan Dron

Comentarios 1