Absolutamente todo (2015) Full 1080p Latino | CinemaniaHD - Descargar Peliculas 1080p Mega Google Drive

Absolutamente todo (2015) Full 1080p Latino

1.031 vistas
1 estrella2 estrellas3 estrellas4 estrellas5 estrellas (1 votos, promedio: 5,00 de 5)
Cargando…

Información de Absolutamente todo (2015) Full 1080p Latino

Datos de la película

  • Calidad: Full 1080p
  • Audio: Se especifica abajo de la Sinopsis
  • Subtitulos: Español Latino PGS - Ingles PGS
  • Resolución: 1920x1080p
  • Formato: MKV
  • Codec: H.264
  • Encoder: Dracarys
  • Mediainfo: Clic para Mostrar Datos Ver
  • Format                                   : Matroska
    Format version                           : Version 4 / Version 2
    File size                                : 3.48 GiB
    Duration                                 : 1 h 33 min
    Overall bit rate                         : 5 326 kb/s
    Movie name                               : CinemaniaHDD.com
    Encoded date                             : UTC 2018-04-05 02:25:11 / UTC 2018-03-31T05:52:46Z
    Writing application                      : mkvmerge v15.0.0 ('Duel with the Devil') 64-bit
    Writing library                          : libebml v1.3.5 + libmatroska v1.4.5 / Lavf57.7.2

    Video
    ID                                       : 1
    Format                                   : AVC
    Format/Info                              : Advanced Video Codec
    Format profile                           : High@L4.1
    Format settings                          : CABAC / 4 Ref Frames
    Format settings, CABAC                   : Yes
    Format settings, RefFrames               : 4 frames
    Codec ID                                 : V_MPEG4/ISO/AVC
    Duration                                 : 1 h 33 min
    Bit rate                                 : 4 260 kb/s
    Width                                    : 1 920 pixels
    Height                                   : 1 080 pixels
    Display aspect ratio                     : 16:9
    Frame rate mode                          : Constant
    Frame rate                               : 23.976 (24000/1001) FPS
    Color space                              : YUV
    Chroma subsampling                       : 4:2:0
    Bit depth                                : 8 bits
    Scan type                                : Progressive
    Bits/(Pixel*Frame)                       : 0.086
    Stream size                              : 2.78 GiB (80%)
    Title                                    : Absolutamente todo (2015) Full 1080p Latino
    Writing library                          : x264 core 148 r2708 86b7198
    Encoding settings                        : cabac=1 / ref=4 / deblock=1:0:0 / analyse=0x3:0x133 / me=esa / subme=9 / psy=1 / psy_rd=1.00:0.00 / mixed_ref=1 / me_range=16 / chroma_me=1 / trellis=2 / 8x8dct=1 / cqm=0 / deadzone=21,11 / fast_pskip=1 / chroma_qp_offset=-2 / threads=34 / lookahead_threads=2 / sliced_threads=0 / nr=0 / decimate=1 / interlaced=0 / bluray_compat=0 / constrained_intra=0 / bframes=3 / b_pyramid=2 / b_adapt=2 / b_bias=0 / direct=3 / weightb=1 / open_gop=0 / weightp=2 / keyint=240 / keyint_min=24 / scenecut=40 / intra_refresh=0 / rc_lookahead=60 / rc=crf / mbtree=1 / crf=20.0 / qcomp=0.60 / qpmin=0 / qpmax=69 / qpstep=4 / vbv_maxrate=62500 / vbv_bufsize=78125 / crf_max=0.0 / nal_hrd=none / filler=0 / ip_ratio=1.40 / aq=1:1.00
    Language                                 : English
    Default                                  : Yes
    Forced                                   : No
    Color range                              : Limited
    Color primaries                          : BT.709
    Transfer characteristics                 : BT.709
    Matrix coefficients                      : BT.709
    Statistics Tags Issue                    : mkvmerge v15.0.0 ('Duel with the Devil') 64-bit 2018-04-05 02:25:11 / mkvmerge v15.0.0 ('Duel with the Devil') 64-bit 2018-04-05 02:25:11 / UTC 2018-03-31T05:52:46Z
    FromStats_BitRate                        : 4820619
    FromStats_Duration                       : 01:25:30.125000000
    FromStats_FrameCount                     : 123000
    FromStats_StreamSize                     : 3091297714

    Audio #1
    ID                                       : 2
    Format                                   : AC-3
    Format/Info                              : Audio Coding 3
    Format settings, Endianness              : Big
    Codec ID                                 : A_AC3
    Duration                                 : 1 h 33 min
    Bit rate mode                            : Constant
    Bit rate                                 : 192 kb/s
    Channel(s)                               : 2 channels
    Channel positions                        : Front: L R
    Sampling rate                            : 48.0 kHz
    Frame rate                               : 31.250 FPS (1536 SPF)
    Bit depth                                : 16 bits
    Compression mode                         : Lossy
    Stream size                              : 129 MiB (4%)
    Language                                 : Spanish
    Service kind                             : Complete Main
    Default                                  : Yes
    Forced                                   : No
    Statistics Tags Issue                    : mkvmerge v15.0.0 ('Duel with the Devil') 64-bit 2018-04-05 02:25:11 / mkvmerge v15.0.0 ('Duel with the Devil') 64-bit 2018-04-05 02:25:11 / UTC 2018-03-31T05:52:46Z
    FromStats_BitRate                        : 192000
    FromStats_Duration                       : 01:25:31.200000000
    FromStats_FrameCount                     : 160350
    FromStats_StreamSize                     : 123148800

    Audio #2
    ID                                       : 3
    Format                                   : DTS
    Format/Info                              : Digital Theater Systems
    Mode                                     : 16
    Format settings, Endianness              : Big
    Codec ID                                 : A_DTS
    Duration                                 : 1 h 33 min
    Bit rate mode                            : Constant
    Bit rate                                 : 768 kb/s
    Channel(s)                               : 6 channels
    Channel positions                        : Front: L C R, Side: L R, LFE
    Sampling rate                            : 48.0 kHz
    Frame rate                               : 93.750 FPS (512 SPF)
    Bit depth                                : 24 bits
    Compression mode                         : Lossy
    Stream size                              : 514 MiB (14%)
    Language                                 : English
    Default                                  : No
    Forced                                   : No
    Statistics Tags Issue                    : mkvmerge v15.0.0 ('Duel with the Devil') 64-bit 2018-04-05 02:25:11 / mkvmerge v15.0.0 ('Duel with the Devil') 64-bit 2018-04-05 02:25:11 / UTC 2018-03-31T05:52:46Z
    FromStats_BitRate                        : 767999
    FromStats_Duration                       : 01:25:30.123000000
    FromStats_FrameCount                     : 480949
    FromStats_StreamSize                     : 492491776

    Text #1
    ID                                       : 4
    Format                                   : UTF-8
    Codec ID                                 : S_TEXT/UTF8
    Codec ID/Info                            : UTF-8 Plain Text
    Title                                    : SRT-Forzados
    Language                                 : Spanish
    Default                                  : Yes
    Forced                                   : Yes
    Statistics Tags Issue                    : mkvmerge v15.0.0 ('Duel with the Devil') 64-bit 2018-04-05 02:25:11 / mkvmerge v15.0.0 ('Duel with the Devil') 64-bit 2018-04-05 02:25:11 / UTC 2018-03-31T05:52:46Z
    FromStats_BitRate                        : 0
    FromStats_Duration                       : 01:32:25.040000000
    FromStats_FrameCount                     : 9
    FromStats_StreamSize                     : 217

    Text #2
    ID                                       : 5
    Format                                   : UTF-8
    Codec ID                                 : S_TEXT/UTF8
    Codec ID/Info                            : UTF-8 Plain Text
    Title                                    : SRT-Completos
    Language                                 : Spanish
    Default                                  : No
    Forced                                   : No
    Statistics Tags Issue                    : mkvmerge v15.0.0 ('Duel with the Devil') 64-bit 2018-04-05 02:25:11 / mkvmerge v15.0.0 ('Duel with the Devil') 64-bit 2018-04-05 02:25:11 / UTC 2018-03-31T05:52:46Z
    FromStats_BitRate                        : 79
    FromStats_Duration                       : 01:22:41.646000000
    FromStats_FrameCount                     : 1294
    FromStats_StreamSize                     : 49220

    Text #3
    ID                                       : 6
    Format                                   : PGS
    Muxing mode                              : zlib
    Codec ID                                 : S_HDMV/PGS
    Codec ID/Info                            : Picture based subtitle format used on BDs/HD-DVDs
    Title                                    : PGS-Forzados
    Language                                 : Spanish
    Default                                  : No
    Forced                                   : No
    Statistics Tags Issue                    : mkvmerge v15.0.0 ('Duel with the Devil') 64-bit 2018-04-05 02:25:11 / mkvmerge v15.0.0 ('Duel with the Devil') 64-bit 2018-04-05 02:25:11 / UTC 2018-03-31T05:52:46Z
    FromStats_BitRate                        : 410
    FromStats_Duration                       : 01:32:25.045000000
    FromStats_FrameCount                     : 18
    FromStats_StreamSize                     : 284400

    Text #4
    ID                                       : 7
    Format                                   : PGS
    Muxing mode                              : zlib
    Codec ID                                 : S_HDMV/PGS
    Codec ID/Info                            : Picture based subtitle format used on BDs/HD-DVDs
    Title                                    : PGS-Completos
    Language                                 : Spanish
    Default                                  : No
    Forced                                   : No
    Statistics Tags Issue                    : mkvmerge v15.0.0 ('Duel with the Devil') 64-bit 2018-04-05 02:25:11 / mkvmerge v15.0.0 ('Duel with the Devil') 64-bit 2018-04-05 02:25:11 / UTC 2018-03-31T05:52:46Z
    FromStats_BitRate                        : 70953
    FromStats_Duration                       : 01:22:41.670000000
    FromStats_FrameCount                     : 2588
    FromStats_StreamSize                     : 44006101

    Text #5
    ID                                       : 8
    Format                                   : PGS
    Muxing mode                              : zlib
    Codec ID                                 : S_HDMV/PGS
    Codec ID/Info                            : Picture based subtitle format used on BDs/HD-DVDs
    Title                                    : PGS-Completos
    Language                                 : English
    Default                                  : No
    Forced                                   : No
    Statistics Tags Issue                    : mkvmerge v15.0.0 ('Duel with the Devil') 64-bit 2018-04-05 02:25:11 / mkvmerge v15.0.0 ('Duel with the Devil') 64-bit 2018-04-05 02:25:11 / UTC 2018-03-31T05:52:46Z
    FromStats_BitRate                        : 50974
    FromStats_Duration                       : 01:22:40.831000000
    FromStats_FrameCount                     : 2726
    FromStats_StreamSize                     : 31609553

    Menu
    00:00:00.000                             : :Chapter 1
    00:03:09.981                             : :Chapter 2
    00:08:13.827                             : :Chapter 3
    00:14:41.631                             : :Chapter 4
    00:32:59.102                             : :Chapter 5
    00:40:15.580                             : :Chapter 6
    00:53:42.886                             : :Chapter 7
    01:02:15.815                             : :Chapter 8
    01:06:17.682                             : :Chapter 9
    01:11:51.098                             : :Chapter 10
    01:14:56.033                             : :Chapter 11
    01:21:24.755                             : :Chapter 12

  • Peso: 3.48 GiB

Sinopsis

Farsa de ciencia ficción en la que un grupo de extraterrestres conceden poderes a un profesor de la Tierra. El profesor descubre que sus nuevas habilidades le permiten hacer cualquier cosa, desde dar una lección a sus peores estudiantes hasta resucitar a los muertos… Con las voces originales de los miembros de Monty Python.

 

 

Audios: Latino AC3 Captura TV 2.0 – Ingles DTS Bluray 5.1

Ficha técnica

Video trailer de la película

Enlaces de descarga

Rip de Bluray

Descargar Absolutamente todo (2015) Full 1080p Latino




Aportes de DPeliculasHDmega la pass es:dpeliculashdmega.org Aportes de CinemaniaHD la pass es:cinemaniahdd.com

Películas relacionadas

Comentarios 2
  • #Cinefilo - 22 abril, 2018

    Hola cinemania, una pergunta algun dia subiran un mejor audio latino que el que tiene ahora, solo es una duda, para saber si espero o la veo , Gracias

    • dpelis - 28 abril, 2018

      la cuenta esta bloqueada andamos trabjando en ello. saludos