Terror a 47 metros (2017) 1080p Latino

1.205 vistas
1 estrella2 estrellas3 estrellas4 estrellas5 estrellas (1 votos, promedio: 5,00 de 5)
Cargando…

Información de Terror a 47 metros (2017) 1080p Latino

Datos de la película

  • Calidad: 1080p
  • Audio: Español Latino AC3 5.1 BLURAY - Ingles AC3 5.1 BLURAY
  • Subtitulos: Español Latino SRT
  • Resolución: 1920x1080p
  • Formato: MKV
  • Codec: H.264
  • Encoder: Dracarys
  • Mediainfo: Clic para Mostrar Datos Ver
  • Format                                   : Matroska
    Format version                           : Version 4 / Version 2
    File size                                : 2.80 GiB
    Duration                                 : 1 h 29 min
    Overall bit rate                         : 4 489 kb/s
    Movie name                               : CinemaniaHDD.com
    Encoded date                             : UTC 2018-05-17 20:41:22 / UTC 2018-05-17T19:33:41Z
    Writing application                      : mkvmerge v15.0.0 ('Duel with the Devil') 64-bit
    Writing library                          : libebml v1.3.5 + libmatroska v1.4.5 / Lavf57.7.2

    Video
    ID                                       : 1
    Format                                   : AVC
    Format/Info                              : Advanced Video Codec
    Format profile                           : High@L4.1
    Format settings                          : CABAC / 4 Ref Frames
    Format settings, CABAC                   : Yes
    Format settings, RefFrames               : 4 frames
    Codec ID                                 : V_MPEG4/ISO/AVC
    Duration                                 : 1 h 29 min
    Bit rate                                 : 3 311 kb/s
    Nominal bit rate                         : 3 500 kb/s
    Width                                    : 1 920 pixels
    Height                                   : 1 080 pixels
    Display aspect ratio                     : 16:9
    Frame rate mode                          : Constant
    Frame rate                               : 23.976 (24000/1001) FPS
    Color space                              : YUV
    Chroma subsampling                       : 4:2:0
    Bit depth                                : 8 bits
    Scan type                                : Progressive
    Bits/(Pixel*Frame)                       : 0.067
    Stream size                              : 2.06 GiB (74%)
    Title                                    : Terror a 47 metros (2017) 1080p Latino
    Writing library                          : x264 core 148 r2708 86b7198
    Encoding settings                        : cabac=1 / ref=3 / deblock=1:0:0 / analyse=0x3:0x113 / me=hex / subme=7 / psy=1 / psy_rd=1.00:0.00 / mixed_ref=1 / me_range=16 / chroma_me=1 / trellis=1 / 8x8dct=1 / cqm=0 / deadzone=21,11 / fast_pskip=1 / chroma_qp_offset=-2 / threads=34 / lookahead_threads=5 / sliced_threads=0 / nr=0 / decimate=1 / interlaced=0 / bluray_compat=0 / constrained_intra=0 / bframes=3 / b_pyramid=2 / b_adapt=1 / b_bias=0 / direct=1 / weightb=1 / open_gop=0 / weightp=2 / keyint=240 / keyint_min=24 / scenecut=40 / intra_refresh=0 / rc_lookahead=40 / rc=abr / mbtree=1 / bitrate=3500 / ratetol=1.0 / qcomp=0.60 / qpmin=0 / qpmax=69 / qpstep=4 / vbv_maxrate=62500 / vbv_bufsize=78125 / nal_hrd=none / filler=0 / ip_ratio=1.40 / aq=1:1.00
    Language                                 : English
    Default                                  : Yes
    Forced                                   : No
    Color range                              : Limited
    Color primaries                          : BT.709
    Transfer characteristics                 : BT.709
    Matrix coefficients                      : BT.709
    Statistics Tags Issue                    : mkvmerge v15.0.0 ('Duel with the Devil') 64-bit 2018-05-17 20:41:22 / mkvmerge v15.0.0 ('Duel with the Devil') 64-bit 2018-05-17 20:41:22 / UTC 2018-05-17T19:33:41Z
    FromStats_BitRate                        : 3398587
    FromStats_Duration                       : 01:29:16.393000000
    FromStats_FrameCount                     : 128424
    FromStats_StreamSize                     : 2275521051

    Audio #1
    ID                                       : 2
    Format                                   : AC-3
    Format/Info                              : Audio Coding 3
    Format settings, Endianness              : Big
    Codec ID                                 : A_AC3
    Duration                                 : 1 h 29 min
    Bit rate mode                            : Constant
    Bit rate                                 : 448 kb/s
    Channel(s)                               : 6 channels
    Channel positions                        : Front: L C R, Side: L R, LFE
    Sampling rate                            : 48.0 kHz
    Frame rate                               : 31.250 FPS (1536 SPF)
    Bit depth                                : 16 bits
    Compression mode                         : Lossy
    Stream size                              : 286 MiB (10%)
    Language                                 : Spanish
    Service kind                             : Complete Main
    Default                                  : Yes
    Forced                                   : No
    Statistics Tags Issue                    : mkvmerge v15.0.0 ('Duel with the Devil') 64-bit 2018-05-17 20:41:22 / mkvmerge v15.0.0 ('Duel with the Devil') 64-bit 2018-05-17 20:41:22 / UTC 2018-05-17T19:33:41Z
    FromStats_BitRate                        : 448000
    FromStats_Duration                       : 01:29:16.384000000
    FromStats_FrameCount                     : 167387
    FromStats_StreamSize                     : 299957504

    Audio #2
    ID                                       : 3
    Format                                   : AC-3
    Format/Info                              : Audio Coding 3
    Format settings, Endianness              : Big
    Codec ID                                 : A_AC3
    Duration                                 : 1 h 29 min
    Bit rate mode                            : Constant
    Bit rate                                 : 640 kb/s
    Channel(s)                               : 6 channels
    Channel positions                        : Front: L C R, Side: L R, LFE
    Sampling rate                            : 48.0 kHz
    Frame rate                               : 31.250 FPS (1536 SPF)
    Bit depth                                : 16 bits
    Compression mode                         : Lossy
    Delay relative to video                  : 48 ms
    Stream size                              : 409 MiB (14%)
    Title                                    : Surround
    Language                                 : English
    Service kind                             : Complete Main
    Default                                  : No
    Forced                                   : No
    Statistics Tags Issue                    : mkvmerge v15.0.0 ('Duel with the Devil') 64-bit 2018-05-17 20:41:22 / mkvmerge v15.0.0 ('Duel with the Devil') 64-bit 2018-05-17 20:41:22 / UTC 2018-05-17T19:33:41Z
    FromStats_BitRate                        : 640000
    FromStats_Duration                       : 01:29:16.320000000
    FromStats_FrameCount                     : 167385
    FromStats_StreamSize                     : 428505600

    Text
    ID                                       : 4
    Format                                   : UTF-8
    Codec ID                                 : S_TEXT/UTF8
    Codec ID/Info                            : UTF-8 Plain Text
    Title                                    : SRT
    Language                                 : Spanish
    Default                                  : No
    Forced                                   : No
    Statistics Tags Issue                    : mkvmerge v15.0.0 ('Duel with the Devil') 64-bit 2018-05-17 20:41:22 / mkvmerge v15.0.0 ('Duel with the Devil') 64-bit 2018-05-17 20:41:22 / UTC 2018-05-17T19:33:41Z
    FromStats_BitRate                        : 46
    FromStats_Duration                       : 01:19:32.063000000
    FromStats_FrameCount                     : 839
    FromStats_StreamSize                     : 27520

    Menu
    00:00:00.000                             : :Chapter 1
    00:06:36.229                             : :Chapter 2
    00:10:12.946                             : :Chapter 3
    00:16:08.468                             : :Chapter 4
    00:20:51.333                             : :Chapter 5
    00:27:36.530                             : :Chapter 6
    00:31:37.771                             : :Chapter 7
    00:36:18.968                             : :Chapter 8
    00:42:00.685                             : :Chapter 9
    00:46:39.005                             : :Chapter 10
    00:52:06.415                             : :Chapter 11
    00:57:23.941                             : :Chapter 12
    01:02:45.553                             : :Chapter 13
    01:07:36.719                             : :Chapter 14
    01:13:12.847                             : :Chapter 15
    01:18:09.935                             : :Chapter 16

  • Peso: 2.80 GiB

Sinopsis

Kate y Lisa son dos hermanas veinteañeras amantes de la diversión que viajan a México para disfrutar de las mejores vacaciones de sus vidas. Cuando surge la oportunidad de sumergirse en una jaula para ver tiburones blancos, la aventurera Kate se apunta al instante para desesperación de Lisa. Finalmente, ambas se sumergen a dos horas de la costa de Huatulco para encontrarse cara a cara con el depredador más feroz de la naturaleza. Pero lo que debería haber sido la experiencia definitiva se acaba convirtiendo en una pesadilla cuando la jaula se suelta del barco y quedan atrapadas en el fondo del océano. Con menos de una hora de oxígeno en sus tanques, deben encontrar la manera de regresar a la embarcación a través de 47 metros infestados de tiburones.

Ficha técnica

Video trailer de la película

Enlaces de descarga

Rip de Bluray

Descargar Terror a 47 metros (2017) 1080p Latino




Aportes de DPeliculasHDmega la pass es:dpeliculashdmega.org Aportes de CinemaniaHD la pass es:cinemaniahdd.com

Películas relacionadas

Comentarios 0