15:17 Tren a París (2018) Full 1080p Latino

1.111 vistas
1 estrella2 estrellas3 estrellas4 estrellas5 estrellas (1 votos, promedio: 5,00 de 5)
Cargando…

Información de 15:17 Tren a París (2018) Full 1080p Latino

Datos de la película

  • Calidad: Full 1080p
  • Audio: Español Latino AC3 5.1 BLURAY - Ingles DTS 5.1 BLURAY
  • Subtitulos: Español Latino PGS - Ingles PGS
  • Resolución: 1920x1080p
  • Formato: MKV
  • Codec: H.264
  • Encoder: Dracarys
  • Mediainfo: Clic para Mostrar Datos Ver
  • Format                                   : Matroska
    Format version                           : Version 4 / Version 2
    File size                                : 4.34 GiB
    Duration                                 : 1 h 33 min
    Overall bit rate                         : 6 614 kb/s
    Movie name                               : CinemaniaHDD.com
    Encoded date                             : UTC 2018-05-16 02:03:24 / UTC 2018-05-15T20:51:04Z
    Writing application                      : mkvmerge v15.0.0 ('Duel with the Devil') 64-bit
    Writing library                          : libebml v1.3.5 + libmatroska v1.4.5 / Lavf57.7.2

    Video
    ID                                       : 1
    Format                                   : AVC
    Format/Info                              : Advanced Video Codec
    Format profile                           : High@L4.1
    Format settings                          : CABAC / 4 Ref Frames
    Format settings, CABAC                   : Yes
    Format settings, RefFrames               : 4 frames
    Codec ID                                 : V_MPEG4/ISO/AVC
    Duration                                 : 1 h 33 min
    Bit rate                                 : 4 525 kb/s
    Width                                    : 1 920 pixels
    Height                                   : 1 080 pixels
    Display aspect ratio                     : 16:9
    Frame rate mode                          : Constant
    Frame rate                               : 23.976 (24000/1001) FPS
    Color space                              : YUV
    Chroma subsampling                       : 4:2:0
    Bit depth                                : 8 bits
    Scan type                                : Progressive
    Bits/(Pixel*Frame)                       : 0.091
    Stream size                              : 2.97 GiB (68%)
    Title                                    : 15:17 Tren a París (2018) Full 1080p Latino
    Writing library                          : x264 core 148 r2708 86b7198
    Encoding settings                        : cabac=1 / ref=4 / deblock=1:0:0 / analyse=0x3:0x133 / me=esa / subme=9 / psy=1 / psy_rd=1.00:0.00 / mixed_ref=1 / me_range=16 / chroma_me=1 / trellis=2 / 8x8dct=1 / cqm=0 / deadzone=21,11 / fast_pskip=1 / chroma_qp_offset=-2 / threads=34 / lookahead_threads=2 / sliced_threads=0 / nr=0 / decimate=1 / interlaced=0 / bluray_compat=0 / constrained_intra=0 / bframes=3 / b_pyramid=2 / b_adapt=2 / b_bias=0 / direct=3 / weightb=1 / open_gop=0 / weightp=2 / keyint=240 / keyint_min=24 / scenecut=40 / intra_refresh=0 / rc_lookahead=60 / rc=crf / mbtree=1 / crf=20.0 / qcomp=0.60 / qpmin=0 / qpmax=69 / qpstep=4 / vbv_maxrate=62500 / vbv_bufsize=78125 / crf_max=0.0 / nal_hrd=none / filler=0 / ip_ratio=1.40 / aq=1:1.00
    Language                                 : English
    Default                                  : Yes
    Forced                                   : No
    Color range                              : Limited
    Color primaries                          : BT.709
    Transfer characteristics                 : BT.709
    Matrix coefficients                      : BT.709
    Statistics Tags Issue                    : mkvmerge v15.0.0 ('Duel with the Devil') 64-bit 2018-05-16 02:03:24 / mkvmerge v15.0.0 ('Duel with the Devil') 64-bit 2018-05-16 02:03:24 / UTC 2018-05-15T20:51:04Z
    FromStats_BitRate                        : 4625867
    FromStats_Duration                       : 01:33:51.710000000
    FromStats_FrameCount                     : 135026
    FromStats_StreamSize                     : 3256442949

    Audio #1
    ID                                       : 2
    Format                                   : AC-3
    Format/Info                              : Audio Coding 3
    Format settings, Endianness              : Big
    Codec ID                                 : A_AC3
    Duration                                 : 1 h 33 min
    Bit rate mode                            : Constant
    Bit rate                                 : 448 kb/s
    Channel(s)                               : 6 channels
    Channel positions                        : Front: L C R, Side: L R, LFE
    Sampling rate                            : 48.0 kHz
    Frame rate                               : 31.250 FPS (1536 SPF)
    Bit depth                                : 16 bits
    Compression mode                         : Lossy
    Stream size                              : 301 MiB (7%)
    Language                                 : Spanish
    Service kind                             : Complete Main
    Default                                  : Yes
    Forced                                   : No
    Statistics Tags Issue                    : mkvmerge v15.0.0 ('Duel with the Devil') 64-bit 2018-05-16 02:03:24 / mkvmerge v15.0.0 ('Duel with the Devil') 64-bit 2018-05-16 02:03:24 / UTC 2018-05-15T20:51:04Z
    FromStats_BitRate                        : 448000
    FromStats_Duration                       : 01:33:51.776000000
    FromStats_FrameCount                     : 175993
    FromStats_StreamSize                     : 315379456

    Audio #2
    ID                                       : 3
    Format                                   : DTS
    Format/Info                              : Digital Theater Systems
    Mode                                     : 16
    Format settings, Endianness              : Big
    Codec ID                                 : A_DTS
    Duration                                 : 1 h 33 min
    Bit rate mode                            : Constant
    Bit rate                                 : 1 509 kb/s
    Channel(s)                               : 6 channels
    Channel positions                        : Front: L C R, Side: L R, LFE
    Sampling rate                            : 48.0 kHz
    Frame rate                               : 93.750 FPS (512 SPF)
    Bit depth                                : 16 bits
    Compression mode                         : Lossy
    Stream size                              : 1 013 MiB (23%)
    Language                                 : English
    Default                                  : No
    Forced                                   : No
    Statistics Tags Issue                    : mkvmerge v15.0.0 ('Duel with the Devil') 64-bit 2018-05-16 02:03:24 / mkvmerge v15.0.0 ('Duel with the Devil') 64-bit 2018-05-16 02:03:24 / UTC 2018-05-15T20:51:04Z
    FromStats_BitRate                        : 1509000
    FromStats_Duration                       : 01:33:51.744000000
    FromStats_FrameCount                     : 527976
    FromStats_StreamSize                     : 1062287712

    Text #1
    ID                                       : 4
    Format                                   : PGS
    Muxing mode                              : zlib
    Codec ID                                 : S_HDMV/PGS
    Codec ID/Info                            : Picture based subtitle format used on BDs/HD-DVDs
    Language                                 : English
    Default                                  : No
    Forced                                   : No
    Statistics Tags Issue                    : mkvmerge v15.0.0 ('Duel with the Devil') 64-bit 2018-05-16 02:03:24 / mkvmerge v15.0.0 ('Duel with the Devil') 64-bit 2018-05-16 02:03:24 / UTC 2018-05-15T20:51:04Z
    FromStats_BitRate                        : 49578
    FromStats_Duration                       : 01:33:30.230000000
    FromStats_FrameCount                     : 3394
    FromStats_StreamSize                     : 34768406

    Text #2
    ID                                       : 5
    Format                                   : PGS
    Muxing mode                              : zlib
    Codec ID                                 : S_HDMV/PGS
    Codec ID/Info                            : Picture based subtitle format used on BDs/HD-DVDs
    Language                                 : Spanish
    Default                                  : No
    Forced                                   : No
    Statistics Tags Issue                    : mkvmerge v15.0.0 ('Duel with the Devil') 64-bit 2018-05-16 02:03:24 / mkvmerge v15.0.0 ('Duel with the Devil') 64-bit 2018-05-16 02:03:24 / UTC 2018-05-15T20:51:04Z
    FromStats_BitRate                        : 39765
    FromStats_Duration                       : 01:31:58.722000000
    FromStats_FrameCount                     : 2928
    FromStats_StreamSize                     : 27432049

    Text #3
    ID                                       : 6
    Format                                   : PGS
    Muxing mode                              : zlib
    Codec ID                                 : S_HDMV/PGS
    Codec ID/Info                            : Picture based subtitle format used on BDs/HD-DVDs
    Title                                    : Forzados
    Language                                 : Spanish
    Default                                  : Yes
    Forced                                   : Yes
    Statistics Tags Issue                    : mkvmerge v15.0.0 ('Duel with the Devil') 64-bit 2018-05-16 02:03:24 / mkvmerge v15.0.0 ('Duel with the Devil') 64-bit 2018-05-16 02:03:24 / UTC 2018-05-15T20:51:04Z
    FromStats_BitRate                        : 1679
    FromStats_Duration                       : 01:26:44.575000000
    FromStats_FrameCount                     : 90
    FromStats_StreamSize                     : 1092375

    Menu
    00:00:00.000                             : :Chapter 1
    00:09:51.925                             : :Chapter 2
    00:19:23.204                             : :Chapter 3
    00:30:49.264                             : :Chapter 4
    00:44:00.304                             : :Chapter 5
    00:52:51.168                             : :Chapter 6
    01:04:22.609                             : :Chapter 7
    01:11:52.767                             : :Chapter 8
    01:21:46.151                             : :Chapter 9
    01:27:00.340                             : :Chapter 10

  • Peso: 4.34 GiB

Sinopsis

En la tarde del día 21 de agosto de 2015, el mundo observaba en silencio mientras los medios informaban sobre un ataque terrorista frustrado en el tren Thalys #9364 con destino a París—un atentado evitado por tres valientes jóvenes americanos que viajaban por Europa. La película narra el curso de las vidas de estos amigos, desde los avatares de su niñez para encontrar su destino, hasta la serie de eventos que precedieron al ataque. A lo largo de esta desgarradora experiencia, su amistad nunca flaqueó, convirtiéndola en su mejor arma, lo que les permitió salvar la vida de los más de 500 pasajeros a bordo.

Ficha técnica

Video trailer de la película

Enlaces de descarga

Rip de Bluray

Descargar 15:17 Tren a París (2018) Full 1080p Latino




Aportes de DPeliculasHDmega la pass es:dpeliculashdmega.org Aportes de CinemaniaHD la pass es:cinemaniahdd.com

Películas relacionadas

Comentarios 0