15:17 tren a París (2018) 1080p Latino

951 vistas
1 estrella2 estrellas3 estrellas4 estrellas5 estrellas (1 votos, promedio: 5,00 de 5)
Cargando…

Información de 15:17 tren a París (2018) 1080p Latino

Datos de la película

  • Calidad: 1080p
  • Audio: Español Latino AC3 5.1 Netflix - Ingles AC3 5.1 BLURAY
  • Subtitulos: Español Latino SRT- FORZADOS SRT
  • Resolución: 1920x804p
  • Formato: MKV
  • Codec: H.264
  • Encoder: Dracarys
  • Mediainfo: Clic para Mostrar Datos Ver
  • Format                                   : Matroska
    Format version                           : Version 4 / Version 2
    File size                                : 2.90 GiB
    Duration                                 : 1 h 33 min
    Overall bit rate                         : 4 430 kb/s
    Movie name                               : CinemaniaHDD.com
    Encoded date                             : UTC 2018-05-10 05:44:24 / UTC 2018-05-09T18:35:11Z
    Writing application                      : mkvmerge v15.0.0 ('Duel with the Devil') 64-bit
    Writing library                          : libebml v1.3.5 + libmatroska v1.4.5 / Lavf57.7.2

    Video
    ID                                       : 1
    Format                                   : AVC
    Format/Info                              : Advanced Video Codec
    Format profile                           : High@L4.1
    Format settings                          : CABAC / 5 Ref Frames
    Format settings, CABAC                   : Yes
    Format settings, RefFrames               : 5 frames
    Codec ID                                 : V_MPEG4/ISO/AVC
    Duration                                 : 1 h 33 min
    Bit rate                                 : 3 318 kb/s
    Nominal bit rate                         : 3 500 kb/s
    Width                                    : 1 920 pixels
    Height                                   : 804 pixels
    Display aspect ratio                     : 2.40:1
    Frame rate mode                          : Constant
    Frame rate                               : 23.976 (24000/1001) FPS
    Color space                              : YUV
    Chroma subsampling                       : 4:2:0
    Bit depth                                : 8 bits
    Scan type                                : Progressive
    Bits/(Pixel*Frame)                       : 0.090
    Stream size                              : 2.18 GiB (75%)
    Title                                    : 15 17 tren a París (2018) 1080p Latino
    Writing library                          : x264 core 148 r2708 86b7198
    Encoding settings                        : cabac=1 / ref=5 / deblock=1:0:0 / analyse=0x3:0x113 / me=umh / subme=8 / psy=1 / psy_rd=1.00:0.00 / mixed_ref=1 / me_range=16 / chroma_me=1 / trellis=1 / 8x8dct=1 / cqm=0 / deadzone=21,11 / fast_pskip=1 / chroma_qp_offset=-2 / threads=25 / lookahead_threads=4 / sliced_threads=0 / nr=0 / decimate=1 / interlaced=0 / bluray_compat=0 / constrained_intra=0 / bframes=3 / b_pyramid=2 / b_adapt=2 / b_bias=0 / direct=3 / weightb=1 / open_gop=0 / weightp=2 / keyint=240 / keyint_min=24 / scenecut=40 / intra_refresh=0 / rc_lookahead=50 / rc=abr / mbtree=1 / bitrate=3500 / ratetol=1.0 / qcomp=0.60 / qpmin=0 / qpmax=69 / qpstep=4 / vbv_maxrate=62500 / vbv_bufsize=78125 / nal_hrd=none / filler=0 / ip_ratio=1.40 / aq=1:1.00
    Language                                 : English
    Default                                  : Yes
    Forced                                   : No
    Color range                              : Limited
    Color primaries                          : BT.709
    Transfer characteristics                 : BT.709
    Matrix coefficients                      : BT.709
    Statistics Tags Issue                    : mkvmerge v15.0.0 ('Duel with the Devil') 64-bit 2018-05-10 05:44:24 / mkvmerge v15.0.0 ('Duel with the Devil') 64-bit 2018-05-10 05:44:24 / UTC 2018-05-09T18:35:11Z
    FromStats_BitRate                        : 3404034
    FromStats_Duration                       : 01:33:51.710000000
    FromStats_FrameCount                     : 135026
    FromStats_StreamSize                     : 2396316664

    Audio #1
    ID                                       : 2
    Format                                   : AC-3
    Format/Info                              : Audio Coding 3
    Format settings, Endianness              : Big
    Codec ID                                 : A_AC3
    Duration                                 : 1 h 33 min
    Bit rate mode                            : Constant
    Bit rate                                 : 384 kb/s
    Channel(s)                               : 6 channels
    Channel positions                        : Front: L C R, Side: L R, LFE
    Sampling rate                            : 48.0 kHz
    Frame rate                               : 31.250 FPS (1536 SPF)
    Bit depth                                : 16 bits
    Compression mode                         : Lossy
    Delay relative to video                  : 4 s 95 ms
    Stream size                              : 258 MiB (9%)
    Language                                 : Spanish
    Service kind                             : Complete Main
    Default                                  : Yes
    Forced                                   : No
    Statistics Tags Issue                    : mkvmerge v15.0.0 ('Duel with the Devil') 64-bit 2018-05-10 05:44:24 / mkvmerge v15.0.0 ('Duel with the Devil') 64-bit 2018-05-10 05:44:24 / UTC 2018-05-09T18:35:11Z
    FromStats_BitRate                        : 384000
    FromStats_Duration                       : 01:33:47.328000000
    FromStats_FrameCount                     : 175854
    FromStats_StreamSize                     : 270111744

    Audio #2
    ID                                       : 3
    Format                                   : AC-3
    Format/Info                              : Audio Coding 3
    Format settings, Endianness              : Big
    Codec ID                                 : A_AC3
    Duration                                 : 1 h 33 min
    Bit rate mode                            : Constant
    Bit rate                                 : 640 kb/s
    Channel(s)                               : 6 channels
    Channel positions                        : Front: L C R, Side: L R, LFE
    Sampling rate                            : 48.0 kHz
    Frame rate                               : 31.250 FPS (1536 SPF)
    Bit depth                                : 16 bits
    Compression mode                         : Lossy
    Delay relative to video                  : -5 ms
    Stream size                              : 430 MiB (14%)
    Language                                 : English
    Service kind                             : Complete Main
    Default                                  : No
    Forced                                   : No
    Statistics Tags Issue                    : mkvmerge v15.0.0 ('Duel with the Devil') 64-bit 2018-05-10 05:44:24 / mkvmerge v15.0.0 ('Duel with the Devil') 64-bit 2018-05-10 05:44:24 / UTC 2018-05-09T18:35:11Z
    FromStats_BitRate                        : 640000
    FromStats_Duration                       : 01:33:51.744000000
    FromStats_FrameCount                     : 175992
    FromStats_StreamSize                     : 450539520

    Text #1
    ID                                       : 4
    Format                                   : UTF-8
    Codec ID                                 : S_TEXT/UTF8
    Codec ID/Info                            : UTF-8 Plain Text
    Title                                    : Forzados
    Language                                 : Spanish
    Default                                  : Yes
    Forced                                   : Yes
    Statistics Tags Issue                    : mkvmerge v15.0.0 ('Duel with the Devil') 64-bit 2018-05-10 05:44:24 / mkvmerge v15.0.0 ('Duel with the Devil') 64-bit 2018-05-10 05:44:24 / UTC 2018-05-09T18:35:11Z
    FromStats_BitRate                        : 2
    FromStats_Duration                       : 01:21:39.566000000
    FromStats_FrameCount                     : 44
    FromStats_StreamSize                     : 1794

    Text #2
    ID                                       : 5
    Format                                   : UTF-8
    Codec ID                                 : S_TEXT/UTF8
    Codec ID/Info                            : UTF-8 Plain Text
    Language                                 : Spanish
    Default                                  : No
    Forced                                   : No
    Statistics Tags Issue                    : mkvmerge v15.0.0 ('Duel with the Devil') 64-bit 2018-05-10 05:44:24 / mkvmerge v15.0.0 ('Duel with the Devil') 64-bit 2018-05-10 05:44:24 / UTC 2018-05-09T18:35:11Z
    FromStats_BitRate                        : 70
    FromStats_Duration                       : 01:27:31.543000000
    FromStats_FrameCount                     : 1463
    FromStats_StreamSize                     : 45958

    Menu
    00:00:00.000                             : :00:00:00.000
    00:09:51.925                             : :00:09:51.925
    00:19:23.204                             : :00:19:23.204
    00:30:49.264                             : :00:30:49.264
    00:44:00.304                             : :00:44:00.304
    00:52:51.168                             : :00:52:51.168
    01:04:22.609                             : :01:04:22.609
    01:11:52.767                             : :01:11:52.767
    01:21:46.151                             : :01:21:46.151
    01:27:00.382                             : :01:27:00.340

  • Peso: 2.90 GiB

Sinopsis

En la tarde del día 21 de agosto de 2015, el mundo observaba en silencio mientras los medios informaban sobre un ataque terrorista frustrado en el tren Thalys #9364 con destino a París—un atentado evitado por tres valientes jóvenes americanos que viajaban por Europa. La película narra el curso de las vidas de estos amigos, desde los avatares de su niñez para encontrar su destino, hasta la serie de eventos que precedieron al ataque. A lo largo de esta desgarradora experiencia, su amistad nunca flaqueó, convirtiéndola en su mejor arma, lo que les permitió salvar la vida de los más de 500 pasajeros a bordo.

Ficha técnica

  • Titulo original: The 15:17 to Paris
  • Fecha de lanzamiento: 02-02-2018 (United States of America)
  • Director: Clint Eastwood
  • Género: Drama, Historia, Suspense
  • Puntuación: 5.0 1 votos
  • Duración:
    1 h 33 min

Video trailer de la película

Enlaces de descarga

Rip de Bluray

Descargar 15:17 tren a París (2018) 1080p Latino




Aportes de DPeliculasHDmega la pass es:dpeliculashdmega.org Aportes de CinemaniaHD la pass es:cinemaniahdd.com
Guardado en : Drama , Historia , Suspense

Películas relacionadas

Comentarios 1
  • Franckable - 10 septiembre, 2018

    Gracias por el aporte excelente. Saludos!!!