12 Horas Para Sobrevivir: El Inicio (2018) Full 1080p Latino

2.483 vistas
1 estrella2 estrellas3 estrellas4 estrellas5 estrellas (6 votos, promedio: 5,00 de 5)
Cargando…

Información de 12 Horas Para Sobrevivir: El Inicio (2018) Full 1080p Latino

Datos de la película

  • Calidad: Full 1080p
  • Audio: Español Latino DTS 5.1 BLURAY - Ingles DTS 5.1 BLURAY
  • Subtitulos: Español Latino PGS - Ingles PGS
  • Resolución: 1920x1080p
  • Formato: MKV
  • Codec: H.264
  • Encoder: Dracarys
  • Mediainfo: Clic para Mostrar Datos Ver
  • Format                                   : Matroska
    Format version                           : Version 4 / Version 2
    File size                                : 5.93 GiB
    Duration                                 : 1 h 37 min
    Overall bit rate                         : 8 718 kb/s
    Movie name                               : CinemaniaHDD.net
    Encoded date                             : UTC 2018-09-24 04:01:23 / UTC 2018-09-23T21:33:46Z
    Writing application                      : mkvmerge v15.0.0 ('Duel with the Devil') 64-bit
    Writing library                          : libebml v1.3.5 + libmatroska v1.4.5 / Lavf57.7.2

    Video
    ID                                       : 1
    Format                                   : AVC
    Format/Info                              : Advanced Video Codec
    Format profile                           : High@L4.1
    Format settings                          : CABAC / 4 Ref Frames
    Format settings, CABAC                   : Yes
    Format settings, RefFrames               : 4 frames
    Codec ID                                 : V_MPEG4/ISO/AVC
    Duration                                 : 1 h 37 min
    Bit rate                                 : 5 628 kb/s
    Width                                    : 1 920 pixels
    Height                                   : 1 080 pixels
    Display aspect ratio                     : 16:9
    Frame rate mode                          : Constant
    Frame rate                               : 23.976 (24000/1001) FPS
    Color space                              : YUV
    Chroma subsampling                       : 4:2:0
    Bit depth                                : 8 bits
    Scan type                                : Progressive
    Bits/(Pixel*Frame)                       : 0.113
    Stream size                              : 3.83 GiB (65%)
    Title                                    : 12 horas para sobrevivir el inicio (2018) Full 1080p Latino
    Writing library                          : x264 core 148 r2708 86b7198
    Encoding settings                        : cabac=1 / ref=4 / deblock=1:0:0 / analyse=0x3:0x133 / me=esa / subme=10 / psy=1 / psy_rd=1.00:0.00 / mixed_ref=1 / me_range=24 / chroma_me=1 / trellis=2 / 8x8dct=1 / cqm=0 / deadzone=21,11 / fast_pskip=1 / chroma_qp_offset=-2 / threads=34 / lookahead_threads=5 / sliced_threads=0 / nr=0 / decimate=1 / interlaced=0 / bluray_compat=0 / constrained_intra=0 / bframes=8 / b_pyramid=2 / b_adapt=2 / b_bias=0 / direct=3 / weightb=1 / open_gop=0 / weightp=2 / keyint=240 / keyint_min=24 / scenecut=40 / intra_refresh=0 / rc_lookahead=60 / rc=crf / mbtree=1 / crf=20.0 / qcomp=0.60 / qpmin=0 / qpmax=69 / qpstep=4 / vbv_maxrate=62500 / vbv_bufsize=78125 / crf_max=0.0 / nal_hrd=none / filler=0 / ip_ratio=1.40 / aq=1:1.00
    Language                                 : English
    Default                                  : Yes
    Forced                                   : No
    Color range                              : Limited
    Color primaries                          : BT.709
    Transfer characteristics                 : BT.709
    Matrix coefficients                      : BT.709
    Statistics Tags Issue                    : mkvmerge v15.0.0 ('Duel with the Devil') 64-bit 2018-09-24 04:01:23 / mkvmerge v15.0.0 ('Duel with the Devil') 64-bit 2018-09-24 04:01:23 / UTC 2018-09-23T21:33:46Z
    FromStats_BitRate                        : 5773766
    FromStats_Duration                       : 01:37:25.382000000
    FromStats_FrameCount                     : 140149
    FromStats_StreamSize                     : 4218733877

    Audio #1
    ID                                       : 2
    Format                                   : DTS
    Format/Info                              : Digital Theater Systems
    Mode                                     : 16
    Format settings, Endianness              : Big
    Codec ID                                 : A_DTS
    Duration                                 : 1 h 37 min
    Bit rate mode                            : Constant
    Bit rate                                 : 768 kb/s
    Channel(s)                               : 6 channels
    Channel positions                        : Front: L C R, Side: L R, LFE
    Sampling rate                            : 48.0 kHz
    Frame rate                               : 93.750 FPS (512 SPF)
    Bit depth                                : 24 bits
    Compression mode                         : Lossy
    Stream size                              : 535 MiB (9%)
    Language                                 : Spanish
    Default                                  : Yes
    Forced                                   : No
    Statistics Tags Issue                    : mkvmerge v15.0.0 ('Duel with the Devil') 64-bit 2018-09-24 04:01:23 / mkvmerge v15.0.0 ('Duel with the Devil') 64-bit 2018-09-24 04:01:23 / UTC 2018-09-23T21:33:46Z
    FromStats_BitRate                        : 767999
    FromStats_Duration                       : 01:37:25.419000000
    FromStats_FrameCount                     : 548008
    FromStats_StreamSize                     : 561160192

    Audio #2
    ID                                       : 3
    Format                                   : AC-3
    Format/Info                              : Audio Coding 3
    Format settings, Endianness              : Big
    Codec ID                                 : A_AC3
    Duration                                 : 1 h 37 min
    Bit rate mode                            : Constant
    Bit rate                                 : 640 kb/s
    Channel(s)                               : 6 channels
    Channel positions                        : Front: L C R, Side: L R, LFE
    Sampling rate                            : 48.0 kHz
    Frame rate                               : 31.250 FPS (1536 SPF)
    Bit depth                                : 16 bits
    Compression mode                         : Lossy
    Delay relative to video                  : -5 ms
    Stream size                              : 446 MiB (7%)
    Language                                 : Spanish
    Service kind                             : Complete Main
    Default                                  : No
    Forced                                   : No
    Statistics Tags Issue                    : mkvmerge v15.0.0 ('Duel with the Devil') 64-bit 2018-09-24 04:01:23 / mkvmerge v15.0.0 ('Duel with the Devil') 64-bit 2018-09-24 04:01:23 / UTC 2018-09-23T21:33:46Z
    FromStats_BitRate                        : 640000
    FromStats_Duration                       : 01:37:25.408000000
    FromStats_FrameCount                     : 182669
    FromStats_StreamSize                     : 467632640

    Audio #3
    ID                                       : 4
    Format                                   : DTS
    Format/Info                              : Digital Theater Systems
    Mode                                     : 16
    Format settings, Endianness              : Big
    Codec ID                                 : A_DTS
    Duration                                 : 1 h 37 min
    Bit rate mode                            : Constant
    Bit rate                                 : 1 509 kb/s
    Channel(s)                               : 6 channels
    Channel positions                        : Front: L C R, Side: L R, LFE
    Sampling rate                            : 48.0 kHz
    Frame rate                               : 93.750 FPS (512 SPF)
    Bit depth                                : 24 bits
    Compression mode                         : Lossy
    Stream size                              : 1.03 GiB (17%)
    Language                                 : English
    Default                                  : No
    Forced                                   : No
    Statistics Tags Issue                    : mkvmerge v15.0.0 ('Duel with the Devil') 64-bit 2018-09-24 04:01:23 / mkvmerge v15.0.0 ('Duel with the Devil') 64-bit 2018-09-24 04:01:23 / UTC 2018-09-23T21:33:46Z
    FromStats_BitRate                        : 1508999
    FromStats_Duration                       : 01:37:25.419000000
    FromStats_FrameCount                     : 548008
    FromStats_StreamSize                     : 1102592096

    Text #1
    ID                                       : 5
    Format                                   : PGS
    Muxing mode                              : zlib
    Codec ID                                 : S_HDMV/PGS
    Codec ID/Info                            : Picture based subtitle format used on BDs/HD-DVDs
    Language                                 : English
    Default                                  : No
    Forced                                   : No
    Statistics Tags Issue                    : mkvmerge v15.0.0 ('Duel with the Devil') 64-bit 2018-09-24 04:01:23 / mkvmerge v15.0.0 ('Duel with the Devil') 64-bit 2018-09-24 04:01:23 / UTC 2018-09-23T21:33:46Z
    FromStats_BitRate                        : 47302
    FromStats_Duration                       : 01:33:00.908000000
    FromStats_FrameCount                     : 2994
    FromStats_StreamSize                     : 32998657

    Text #2
    ID                                       : 6
    Format                                   : PGS
    Muxing mode                              : zlib
    Codec ID                                 : S_HDMV/PGS
    Codec ID/Info                            : Picture based subtitle format used on BDs/HD-DVDs
    Language                                 : Spanish
    Default                                  : No
    Forced                                   : No
    Statistics Tags Issue                    : mkvmerge v15.0.0 ('Duel with the Devil') 64-bit 2018-09-24 04:01:23 / mkvmerge v15.0.0 ('Duel with the Devil') 64-bit 2018-09-24 04:01:23 / UTC 2018-09-23T21:33:46Z
    FromStats_BitRate                        : 33189
    FromStats_Duration                       : 01:36:27.073000000
    FromStats_FrameCount                     : 2327
    FromStats_StreamSize                     : 24008806

    Text #3
    ID                                       : 7
    Format                                   : PGS
    Muxing mode                              : zlib
    Codec ID                                 : S_HDMV/PGS
    Codec ID/Info                            : Picture based subtitle format used on BDs/HD-DVDs
    Title                                    : Forzados
    Language                                 : Spanish
    Default                                  : Yes
    Forced                                   : Yes
    Statistics Tags Issue                    : mkvmerge v15.0.0 ('Duel with the Devil') 64-bit 2018-09-24 04:01:23 / mkvmerge v15.0.0 ('Duel with the Devil') 64-bit 2018-09-24 04:01:23 / UTC 2018-09-23T21:33:46Z
    FromStats_BitRate                        : 389
    FromStats_Duration                       : 01:35:31.893000000
    FromStats_FrameCount                     : 34
    FromStats_StreamSize                     : 278765

    Menu
    00:00:00.000                             : :Chapter 1
    00:06:25.635                             : :Chapter 2
    00:11:59.802                             : :Chapter 3
    00:16:18.769                             : :Chapter 4
    00:21:18.110                             : :Chapter 5
    00:25:56.388                             : :Chapter 6
    00:30:54.144                             : :Chapter 7
    00:35:31.212                             : :Chapter 8
    00:38:41.110                             : :Chapter 9
    00:43:02.455                             : :Chapter 10
    00:48:34.412                             : :Chapter 11
    00:53:35.087                             : :Chapter 12
    00:55:59.565                             : :Chapter 13
    00:59:13.050                             : :Chapter 14
    01:05:25.713                             : :Chapter 15
    01:09:31.793                             : :Chapter 16
    01:13:23.733                             : :Chapter 17
    01:19:47.533                             : :Chapter 18
    01:24:50.043                             : :Chapter 19
    01:29:54.931                             : :Chapter 20

  • Peso: 5.93 GiB

Sinopsis

Para mantener durante el resto del año la tasa de criminalidad por debajo del 1% los Nuevos Padres Fundadores de América ponen a prueba una teoría sociológica que da rienda suelta a todo tipo de agresiones durante una noche en una comunidad aislada. Pero cuando la violencia de los opresores se encuentra con la ira de los marginados, el vandalismo explota más allá de esas fronteras “experimentales” para extenderse por todo el país. Detrás de cada tradición hay una revolución. Descubre cómo toda una nación entera abrazó una brutal celebración anual: 12 horas de impunidad criminal. Bienvenidos a un movimiento que comenzó como un simple experimento: LA PRIMERA PURGA: LA NOCHE DE LAS BESTIAS.

Ficha técnica

Video trailer de la película

Enlaces de descarga

Rip de Bluray

Descargar 12 Horas Para Sobrevivir: El Inicio (2018) Full 1080p Latino




Aportes de DPeliculasHDmega la pass es:dpeliculashdmega.org Aportes de CinemaniaHD la pass es:cinemaniahdd.com

Películas relacionadas

  • The Night Comes For Us (2018) NF 1080p Latino

    2018
    The Night Comes For Us (2018) NF 1080p Latino

    1.0 2h 1m 2018

    The Night Comes For Us (2018) NF 1080p Latino; Mega, Google Drive. Un antiguo sicario debe proteger a...

    Director: Timo Tjahjanto

    Género: Acción

    Actores: Zack Lee

  • Illang: La brigada del lobo (2018) NF 1080p Latino

    2018
    Illang: La brigada del lobo (2018) NF 1080p Latino

    1.0 2h 19m 2018

    Descargar Illang: La brigada del lobo (2018) NF 1080p Latino; Mega, Google Drive. Basada en el anime...

    Director: Kim Jee-woon

    Género: Acción

    Actores: Shin Eun-soo

  • Mentes poderosas (2018) 1080p Latino

    2018
    Mentes poderosas (2018) 1080p Latino

    1.0 1h 45m 2018

    Descargar Mentes poderosas (2018) 1080p Latino; Mega, Google Drive. Encarcelados en un mundo adulto...

    Director: Jennifer Yuh Nelson

    Género: Ciencia ficción

    Actores: William Walker

  • Paciente Cero (2018) Full 1080p Latino

    2018
    Paciente Cero (2018) Full 1080p Latino

    3.7 1h 26m 2018

    Paciente Cero (2018) Full 1080p Latino; Mega, Google Drive. Tras una pandemia sin precedentes, la Humanidad...

    Director: Stefan Ruzowitzky

    Género: Acción

    Actores: Yumiko Hanasaka

Comentarios 2
  • Sergio - 25 septiembre, 2018

    Gracias estaba esperando. Saludos

  • ocpgaiden - 24 septiembre, 2018

    Gracias por la pelicula y por googledrive, saludos