[•REC] 4 Apocalipsis (2014) Full 1080p Español

1.064 vistas
1 estrella2 estrellas3 estrellas4 estrellas5 estrellas (4 votos, promedio: 2,00 de 5)
Cargando…

Información de [•REC] 4 Apocalipsis (2014) Full 1080p Español

Datos de la película

  • Calidad: Full 1080p
  • Audio: Español DTS 5.1 BLURAY
  • Subtitulos: No
  • Resolución: 1920x1080p
  • Formato: MKV
  • Codec: H.264
  • Encoder: Dracarys
  • Mediainfo: Clic para Mostrar Datos Ver
  • Format                                   : Matroska
    Format version                           : Version 4 / Version 2
    File size                                : 3.46 GiB
    Duration                                 : 1 h 35 min
    Overall bit rate                         : 5 207 kb/s
    Movie name                               : CinemaniaHDD.com
    Encoded date                             : UTC 2018-05-13 03:08:29 / UTC 2018-05-12T07:16:43Z
    Writing application                      : mkvmerge v15.0.0 ('Duel with the Devil') 64-bit
    Writing library                          : libebml v1.3.5 + libmatroska v1.4.5 / Lavf57.7.2

    Video
    ID                                       : 1
    Format                                   : AVC
    Format/Info                              : Advanced Video Codec
    Format profile                           : High@L4.1
    Format settings                          : CABAC / 4 Ref Frames
    Format settings, CABAC                   : Yes
    Format settings, RefFrames               : 4 frames
    Codec ID                                 : V_MPEG4/ISO/AVC
    Duration                                 : 1 h 35 min
    Bit rate                                 : 3 595 kb/s
    Width                                    : 1 920 pixels
    Height                                   : 1 080 pixels
    Display aspect ratio                     : 16:9
    Frame rate mode                          : Constant
    Frame rate                               : 23.976 (24000/1001) FPS
    Color space                              : YUV
    Chroma subsampling                       : 4:2:0
    Bit depth                                : 8 bits
    Scan type                                : Progressive
    Bits/(Pixel*Frame)                       : 0.072
    Stream size                              : 2.39 GiB (69%)
    Title                                    : [•REC] 4 Apocalipsis (2014) Full 1080p Español
    Writing library                          : x264 core 148 r2708 86b7198
    Encoding settings                        : cabac=1 / ref=4 / deblock=1:0:0 / analyse=0x3:0x133 / me=esa / subme=9 / psy=1 / psy_rd=1.00:0.00 / mixed_ref=1 / me_range=16 / chroma_me=1 / trellis=2 / 8x8dct=1 / cqm=0 / deadzone=21,11 / fast_pskip=1 / chroma_qp_offset=-2 / threads=34 / lookahead_threads=2 / sliced_threads=0 / nr=0 / decimate=1 / interlaced=0 / bluray_compat=0 / constrained_intra=0 / bframes=3 / b_pyramid=2 / b_adapt=2 / b_bias=0 / direct=3 / weightb=1 / open_gop=0 / weightp=2 / keyint=240 / keyint_min=24 / scenecut=40 / intra_refresh=0 / rc_lookahead=60 / rc=crf / mbtree=1 / crf=20.0 / qcomp=0.60 / qpmin=0 / qpmax=69 / qpstep=4 / vbv_maxrate=62500 / vbv_bufsize=78125 / crf_max=0.0 / nal_hrd=none / filler=0 / ip_ratio=1.40 / aq=1:1.00
    Language                                 : Spanish
    Default                                  : Yes
    Forced                                   : No
    Color range                              : Limited
    Color primaries                          : BT.709
    Transfer characteristics                 : BT.709
    Matrix coefficients                      : BT.709
    Statistics Tags Issue                    : mkvmerge v15.0.0 ('Duel with the Devil') 64-bit 2018-05-13 03:08:29 / mkvmerge v15.0.0 ('Duel with the Devil') 64-bit 2018-05-13 03:08:29 / UTC 2018-05-12T07:16:43Z
    FromStats_BitRate                        : 3688737
    FromStats_Duration                       : 01:35:04.407000000
    FromStats_FrameCount                     : 136769
    FromStats_StreamSize                     : 2630257583

    Audio
    ID                                       : 2
    Format                                   : DTS
    Format/Info                              : Digital Theater Systems
    Mode                                     : 16
    Format settings, Endianness              : Big
    Codec ID                                 : A_DTS
    Duration                                 : 1 h 35 min
    Bit rate mode                            : Constant
    Bit rate                                 : 1 509 kb/s
    Channel(s)                               : 6 channels
    Channel positions                        : Front: L C R, Side: L R, LFE
    Sampling rate                            : 48.0 kHz
    Frame rate                               : 93.750 FPS (512 SPF)
    Bit depth                                : 16 bits
    Compression mode                         : Lossy
    Stream size                              : 1.00 GiB (29%)
    Language                                 : Spanish
    Default                                  : Yes
    Forced                                   : No
    Statistics Tags Issue                    : mkvmerge v15.0.0 ('Duel with the Devil') 64-bit 2018-05-13 03:08:29 / mkvmerge v15.0.0 ('Duel with the Devil') 64-bit 2018-05-13 03:08:29 / UTC 2018-05-12T07:16:43Z
    FromStats_BitRate                        : 1509000
    FromStats_Duration                       : 01:35:04.448000000
    FromStats_FrameCount                     : 534792
    FromStats_StreamSize                     : 1076001504

    Text
    ID                                       : 3
    Format                                   : PGS
    Muxing mode                              : zlib
    Codec ID                                 : S_HDMV/PGS
    Codec ID/Info                            : Picture based subtitle format used on BDs/HD-DVDs
    Language                                 : English
    Default                                  : No
    Forced                                   : No
    Statistics Tags Issue                    : mkvmerge v15.0.0 ('Duel with the Devil') 64-bit 2018-05-13 03:08:29 / mkvmerge v15.0.0 ('Duel with the Devil') 64-bit 2018-05-13 03:08:29 / UTC 2018-05-12T07:16:43Z
    FromStats_BitRate                        : 35085
    FromStats_Duration                       : 01:30:11.281000000
    FromStats_FrameCount                     : 1814
    FromStats_StreamSize                     : 23732223

    Menu
    00:00:00.000                             : :Chapter 1
    00:05:02.594                             : :Chapter 2
    00:13:18.464                             : :Chapter 3
    00:18:13.259                             : :Chapter 4
    00:24:14.328                             : :Chapter 5
    00:30:24.823                             : :Chapter 6
    00:36:46.246                             : :Chapter 7
    00:42:56.824                             : :Chapter 8
    00:49:06.444                             : :Chapter 9
    00:55:59.731                             : :Chapter 10
    01:01:49.831                             : :Chapter 11
    01:06:44.918                             : :Chapter 12
    01:11:35.792                             : :Chapter 13
    01:19:24.134                             : :Chapter 14
    01:25:02.389                             : :Chapter 15
    01:29:50.927                             : :Chapter 16

  • Peso: 3.46 GiB

Sinopsis

Aunque el virus ya ha salido del edificio en cuarentena en el tercer filme, ahora con [REC]⁴ volverá la acción al final de la segunda parte dentro del edificio, desvelando el origen y el futuro de esta sangrienta y macabra epidemia. Con Manuela Velasco empezó y con ella terminará la historia de gore, zombies y tensión. La actriz volverá a ser la protagonista del final de la franquicia. El desenlace de la pandemia que convierte a las personas en cuerpos salvajes y hambrientos volverá al terror más puro y salvaje de las primeras, al mismo tiempo dará respuestas a las incógnitas que rodean una de las carnicerías más conocidas del cine español. Las calles de Barcelona no se llenarán de infectados, pero se descubrirá un nuevo y terrorífico lugar donde los infectados atacarán y devorarán a cualquier superviviente que pueda quedar de este apocalípsis.

Ficha técnica

Video trailer de la película

Enlaces de descarga

Rip de Bluray

Descargar [•REC] 4 Apocalipsis (2014) Full 1080p Español




Aportes de DPeliculasHDmega la pass es:dpeliculashdmega.org Aportes de CinemaniaHD la pass es:cinemaniahdd.com

Películas relacionadas

  • Sicario (2015) Full 1080p Latino

    2015
    Sicario (2015) Full 1080p Latino

    5.0 2h 1m 2015

    En la zona fronteriza que se extiende entre Estados Unidos y México la joven Kate Macer, una idealista...

    Director: Judi Townsend

    Género: Acción

    Actores: Victor Garber

  • Fahrenheit 451 (2018) Full 1080p Latino

    2018
    Fahrenheit 451 (2018) Full 1080p Latino

    5.0 1h 36m 2018

    Michael B. Jordan y Michael Shannon protagonizan esta adaptación de HBO de la clásica novela distópica...

    Director: Ramin Bahrani

    Género: Ciencia ficción

    Actores: Tim Post

Comentarios 1
  • ocpgaiden - 13 mayo, 2018

    Gracias por la pelicula