[•REC] (2007) Full 1080p Español

1.514 vistas
1 estrella2 estrellas3 estrellas4 estrellas5 estrellas (10 votos, promedio: 3,80 de 5)
Cargando…

Información de [•REC] (2007) Full 1080p Español

Datos de la película

  • Calidad: Full 1080p
  • Audio: Español DTS 5.1 BLURAY
  • Subtitulos: No
  • Resolución: 1920x1080p
  • Formato: MKV
  • Codec: H.264
  • Encoder: Dracarys
  • Mediainfo: Clic para Mostrar Datos Ver
  • Format                                   : Matroska
    Format version                           : Version 4 / Version 2
    File size                                : 7.60 GiB
    Duration                                 : 1 h 15 min
    Overall bit rate                         : 14.5 Mb/s
    Movie name                               : CinemaniaHDD.com
    Encoded date                             : UTC 2018-05-12 03:33:32 / UTC 2018-05-11T04:09:10Z
    Writing application                      : mkvmerge v15.0.0 ('Duel with the Devil') 64-bit
    Writing library                          : libebml v1.3.5 + libmatroska v1.4.5 / Lavf57.7.2

    Video
    ID                                       : 1
    Format                                   : AVC
    Format/Info                              : Advanced Video Codec
    Format profile                           : High@L4.1
    Format settings                          : CABAC / 4 Ref Frames
    Format settings, CABAC                   : Yes
    Format settings, RefFrames               : 4 frames
    Codec ID                                 : V_MPEG4/ISO/AVC
    Duration                                 : 1 h 15 min
    Bit rate                                 : 13.4 Mb/s
    Width                                    : 1 920 pixels
    Height                                   : 1 080 pixels
    Display aspect ratio                     : 16:9
    Frame rate mode                          : Constant
    Frame rate                               : 25.000 FPS
    Color space                              : YUV
    Chroma subsampling                       : 4:2:0
    Bit depth                                : 8 bits
    Scan type                                : Progressive
    Bits/(Pixel*Frame)                       : 0.259
    Stream size                              : 7.04 GiB (93%)
    Title                                    : [•REC] (2007) Full 1080p Español
    Writing library                          : x264 core 148 r2708 86b7198
    Encoding settings                        : cabac=1 / ref=4 / deblock=1:0:0 / analyse=0x3:0x133 / me=esa / subme=9 / psy=1 / psy_rd=1.00:0.00 / mixed_ref=1 / me_range=16 / chroma_me=1 / trellis=2 / 8x8dct=1 / cqm=0 / deadzone=21,11 / fast_pskip=1 / chroma_qp_offset=-2 / threads=34 / lookahead_threads=2 / sliced_threads=0 / nr=0 / decimate=1 / interlaced=0 / bluray_compat=0 / constrained_intra=0 / bframes=3 / b_pyramid=2 / b_adapt=2 / b_bias=0 / direct=3 / weightb=1 / open_gop=0 / weightp=2 / keyint=250 / keyint_min=25 / scenecut=40 / intra_refresh=0 / rc_lookahead=60 / rc=crf / mbtree=1 / crf=20.0 / qcomp=0.60 / qpmin=0 / qpmax=69 / qpstep=4 / vbv_maxrate=62500 / vbv_bufsize=78125 / crf_max=0.0 / nal_hrd=none / filler=0 / ip_ratio=1.40 / aq=1:1.00
    Language                                 : Spanish
    Default                                  : Yes
    Forced                                   : No
    Color range                              : Limited
    Color primaries                          : BT.709
    Transfer characteristics                 : BT.709
    Matrix coefficients                      : BT.709
    Statistics Tags Issue                    : mkvmerge v15.0.0 ('Duel with the Devil') 64-bit 2018-05-12 03:33:32 / mkvmerge v15.0.0 ('Duel with the Devil') 64-bit 2018-05-12 03:33:32 / UTC 2018-05-11T04:09:10Z
    FromStats_BitRate                        : 13673159
    FromStats_Duration                       : 01:15:14.440000000
    FromStats_FrameCount                     : 112861
    FromStats_StreamSize                     : 7715832276

    Audio
    ID                                       : 2
    Format                                   : DTS
    Format/Info                              : Digital Theater Systems
    Mode                                     : 16
    Format settings, Endianness              : Big
    Codec ID                                 : A_DTS
    Duration                                 : 1 h 15 min
    Bit rate mode                            : Constant
    Bit rate                                 : 768 kb/s
    Channel(s)                               : 6 channels
    Channel positions                        : Front: L C R, Side: L R, LFE
    Sampling rate                            : 48.0 kHz
    Frame rate                               : 93.750 FPS (512 SPF)
    Bit depth                                : 16 bits
    Compression mode                         : Lossy
    Stream size                              : 413 MiB (5%)
    Language                                 : Spanish
    Default                                  : Yes
    Forced                                   : No
    Statistics Tags Issue                    : mkvmerge v15.0.0 ('Duel with the Devil') 64-bit 2018-05-12 03:33:32 / mkvmerge v15.0.0 ('Duel with the Devil') 64-bit 2018-05-12 03:33:32 / UTC 2018-05-11T04:09:10Z
    FromStats_BitRate                        : 767999
    FromStats_Duration                       : 01:15:14.475000000
    FromStats_FrameCount                     : 423232
    FromStats_StreamSize                     : 433389568

    Text
    ID                                       : 3
    Format                                   : PGS
    Muxing mode                              : zlib
    Codec ID                                 : S_HDMV/PGS
    Codec ID/Info                            : Picture based subtitle format used on BDs/HD-DVDs
    Language                                 : English
    Default                                  : No
    Forced                                   : No
    Statistics Tags Issue                    : mkvmerge v15.0.0 ('Duel with the Devil') 64-bit 2018-05-12 03:33:32 / mkvmerge v15.0.0 ('Duel with the Devil') 64-bit 2018-05-12 03:33:32 / UTC 2018-05-11T04:09:10Z
    FromStats_BitRate                        : 31542
    FromStats_Duration                       : 01:10:23.360000000
    FromStats_FrameCount                     : 2070
    FromStats_StreamSize                     : 16651774

    Menu
    00:00:00.000                             : :Chapter 1
    00:07:18.960                             : :Chapter 2
    00:11:28.600                             : :Chapter 3
    00:18:45.600                             : :Chapter 4
    00:24:02.920                             : :Chapter 5
    00:29:42.720                             : :Chapter 6
    00:37:12.840                             : :Chapter 7
    00:43:47.880                             : :Chapter 8
    00:49:18.360                             : :Chapter 9
    00:57:25.000                             : :Chapter 10
    01:05:52.320                             : :Chapter 11
    01:10:32.280                             : :Chapter 12

  • Peso: 7.60 GiB

Sinopsis

Cada noche, Ángela (Manuela Velasco), una joven reportera de una televisión local, sigue con su cámara a un grupo profesional distinto. Esta noche le toca entrevistar a los bomberos y tiene la secreta esperanza de poder asistir en directo a un impactante incendio. Pero la noche transcurre tranquilamente. Y cuando, por fin, reciben la llamada de una anciana que se ha quedado encerrada en su casa, no le queda otro remedio que seguirlos durante la misión de rescate. En el edificio donde vive la anciana, los vecinos están muy asustados. La mujer, encerrada en su piso, lanza unos gritos desgarradores… Los bomberos derriban la puerta y, seguidos por Ángela y el cámara, encuentran a la anciana semiinconsciente, rodeada por decenas de gatos. De pronto, la mujer se lanza sobre un bombero y le muerde salvajemente. Es sólo el comienzo de una larga pesadilla y de un dramático reportaje único.

Ficha técnica

Video trailer de la película

Enlaces de descarga

Rip de Bluray

Descargar [•REC] (2007) Full 1080p Español




Aportes de DPeliculasHDmega la pass es:dpeliculashdmega.org Aportes de CinemaniaHD la pass es:cinemaniahdd.com

Películas relacionadas

  • Sicario (2015) Full 1080p Latino

    2015
    Sicario (2015) Full 1080p Latino

    5.0 2h 1m 2015

    En la zona fronteriza que se extiende entre Estados Unidos y México la joven Kate Macer, una idealista...

    Director: Judi Townsend

    Género: Acción

    Actores: Victor Garber

  • Fahrenheit 451 (2018) Full 1080p Latino

    2018
    Fahrenheit 451 (2018) Full 1080p Latino

    5.0 1h 36m 2018

    Michael B. Jordan y Michael Shannon protagonizan esta adaptación de HBO de la clásica novela distópica...

    Director: Ramin Bahrani

    Género: Ciencia ficción

    Actores: Tim Post

Comentarios 1
  • ocpgaiden - 12 mayo, 2018

    esta versión española, es mejor que la versión gabacha, Gracias por la pelicula