[•REC]³ Génesis (2012) Full 1080p Español

629 vistas
1 estrella2 estrellas3 estrellas4 estrellas5 estrellas (3 votos, promedio: 2,33 de 5)
Cargando…

Información de [•REC]³ Génesis (2012) Full 1080p Español

Datos de la película

  • Calidad: Full 1080p
  • Audio: Español DTS 5.1 BLURAY
  • Subtitulos: No
  • Resolución: 1920x1080p
  • Formato: MKV
  • Codec: H.264
  • Encoder: Dracarys
  • Mediainfo: Clic para Mostrar Datos Ver
  • Format                                   : Matroska
    Format version                           : Version 4 / Version 2
    File size                                : 5.10 GiB
    Duration                                 : 1 h 20 min
    Overall bit rate                         : 9 092 kb/s
    Movie name                               : CinemaniaHDD.com
    Encoded date                             : UTC 2018-05-13 02:55:36 / UTC 2018-05-12T05:18:33Z
    Writing application                      : mkvmerge v15.0.0 ('Duel with the Devil') 64-bit
    Writing library                          : libebml v1.3.5 + libmatroska v1.4.5 / Lavf57.7.2

    Video
    ID                                       : 1
    Format                                   : AVC
    Format/Info                              : Advanced Video Codec
    Format profile                           : High@L4.1
    Format settings                          : CABAC / 4 Ref Frames
    Format settings, CABAC                   : Yes
    Format settings, RefFrames               : 4 frames
    Codec ID                                 : V_MPEG4/ISO/AVC
    Duration                                 : 1 h 20 min
    Bit rate                                 : 7 402 kb/s
    Width                                    : 1 920 pixels
    Height                                   : 1 080 pixels
    Display aspect ratio                     : 16:9
    Frame rate mode                          : Constant
    Frame rate                               : 23.976 (24000/1001) FPS
    Color space                              : YUV
    Chroma subsampling                       : 4:2:0
    Bit depth                                : 8 bits
    Scan type                                : Progressive
    Bits/(Pixel*Frame)                       : 0.149
    Stream size                              : 4.15 GiB (81%)
    Title                                    : [•REC]³ Génesis (2012) Full 1080p Español
    Writing library                          : x264 core 148 r2708 86b7198
    Encoding settings                        : cabac=1 / ref=4 / deblock=1:0:0 / analyse=0x3:0x133 / me=esa / subme=9 / psy=1 / psy_rd=1.00:0.00 / mixed_ref=1 / me_range=16 / chroma_me=1 / trellis=2 / 8x8dct=1 / cqm=0 / deadzone=21,11 / fast_pskip=1 / chroma_qp_offset=-2 / threads=34 / lookahead_threads=2 / sliced_threads=0 / nr=0 / decimate=1 / interlaced=0 / bluray_compat=0 / constrained_intra=0 / bframes=3 / b_pyramid=2 / b_adapt=2 / b_bias=0 / direct=3 / weightb=1 / open_gop=0 / weightp=2 / keyint=240 / keyint_min=24 / scenecut=40 / intra_refresh=0 / rc_lookahead=60 / rc=crf / mbtree=1 / crf=20.0 / qcomp=0.60 / qpmin=0 / qpmax=69 / qpstep=4 / vbv_maxrate=62500 / vbv_bufsize=78125 / crf_max=0.0 / nal_hrd=none / filler=0 / ip_ratio=1.40 / aq=1:1.00
    Language                                 : Spanish
    Default                                  : Yes
    Forced                                   : No
    Color range                              : Limited
    Color primaries                          : BT.709
    Transfer characteristics                 : BT.709
    Matrix coefficients                      : BT.709
    Statistics Tags Issue                    : mkvmerge v15.0.0 ('Duel with the Devil') 64-bit 2018-05-13 02:55:36 / mkvmerge v15.0.0 ('Duel with the Devil') 64-bit 2018-05-13 02:55:36 / UTC 2018-05-12T05:18:33Z
    FromStats_BitRate                        : 7574594
    FromStats_Duration                       : 01:20:18.773000000
    FromStats_FrameCount                     : 115535
    FromStats_StreamSize                     : 4562531385

    Audio
    ID                                       : 2
    Format                                   : DTS
    Format/Info                              : Digital Theater Systems
    Mode                                     : 16
    Format settings, Endianness              : Big
    Codec ID                                 : A_DTS
    Duration                                 : 1 h 20 min
    Bit rate mode                            : Constant
    Bit rate                                 : 1 509 kb/s
    Channel(s)                               : 6 channels
    Channel positions                        : Front: L C R, Side: L R, LFE
    Sampling rate                            : 48.0 kHz
    Frame rate                               : 93.750 FPS (512 SPF)
    Bit depth                                : 24 bits
    Compression mode                         : Lossy
    Stream size                              : 867 MiB (17%)
    Language                                 : Spanish
    Default                                  : Yes
    Forced                                   : No
    Statistics Tags Issue                    : mkvmerge v15.0.0 ('Duel with the Devil') 64-bit 2018-05-13 02:55:36 / mkvmerge v15.0.0 ('Duel with the Devil') 64-bit 2018-05-13 02:55:36 / UTC 2018-05-12T05:18:33Z
    FromStats_BitRate                        : 1508999
    FromStats_Duration                       : 01:20:18.806000000
    FromStats_FrameCount                     : 451763
    FromStats_StreamSize                     : 908947156

    Text
    ID                                       : 3
    Format                                   : PGS
    Muxing mode                              : zlib
    Codec ID                                 : S_HDMV/PGS
    Codec ID/Info                            : Picture based subtitle format used on BDs/HD-DVDs
    Language                                 : English
    Default                                  : No
    Forced                                   : No
    Statistics Tags Issue                    : mkvmerge v15.0.0 ('Duel with the Devil') 64-bit 2018-05-13 02:55:36 / mkvmerge v15.0.0 ('Duel with the Devil') 64-bit 2018-05-13 02:55:36 / UTC 2018-05-12T05:18:33Z
    FromStats_BitRate                        : 22791
    FromStats_Duration                       : 01:12:12.745000000
    FromStats_FrameCount                     : 1270
    FromStats_StreamSize                     : 12343458

    Menu
    00:00:00.000                             : :Chapter 1
    00:04:15.672                             : :Chapter 2
    00:08:42.355                             : :Chapter 3
    00:13:02.115                             : :Chapter 4
    00:16:18.686                             : :Chapter 5
    00:21:42.301                             : :Chapter 6
    00:25:13.470                             : :Chapter 7
    00:29:17.381                             : :Chapter 8
    00:33:41.228                             : :Chapter 9
    00:37:42.010                             : :Chapter 10
    00:40:47.362                             : :Chapter 11
    00:46:08.349                             : :Chapter 12
    00:50:13.010                             : :Chapter 13
    00:53:43.303                             : :Chapter 14
    00:55:53.600                             : :Chapter 15
    00:59:49.294                             : :Chapter 16
    01:05:15.036                             : :Chapter 17
    01:09:41.803                             : :Chapter 18
    01:11:47.512                             : :Chapter 19
    01:14:22.333                             : :Chapter 20

  • Peso: 5.10 GiB

Sinopsis

Koldo y Clara están hechos el uno para el otro. Van a celebrar su enlace acompañados de sus seres queridos. Pero una negra sombra se cierne sobre ellos. En el día más feliz de sus vidas, el infierno va a desatarse.

Ficha técnica

  • Titulo original: [REC]³ Génesis
  • Fecha de lanzamiento: 30-03-2012 (Spain)
  • Género: FULL 1080p Plateadas, Terror
  • Puntuación: 2.3 3 votos
  • Duración:
    1h 20m

Video trailer de la película

Enlaces de descarga

Rip de Bluray

Descargar [•REC]³ Génesis (2012) Full 1080p Español




Aportes de DPeliculasHDmega la pass es:dpeliculashdmega.org Aportes de CinemaniaHD la pass es:cinemaniahdd.com
Guardado en : FULL 1080p Plateadas , Terror

Películas relacionadas

Comentarios 1
  • ocpgaiden - 13 mayo, 2018

    Gracias por la pelicula