[•REC]² (2009) Full 1080p Español

744 vistas
1 estrella2 estrellas3 estrellas4 estrellas5 estrellas (8 votos, promedio: 3,88 de 5)
Cargando…

Información de [•REC]² (2009) Full 1080p Español

Datos de la película

  • Calidad: Full 1080p
  • Audio: Español DTS 5.1 BLURAY
  • Subtitulos: No
  • Resolución: 1920x1080p
  • Formato: MKV
  • Codec: H.264
  • Encoder: Dracarys
  • Mediainfo: Clic para Mostrar Datos Ver
  • Format                                   : Matroska
    Format version                           : Version 4 / Version 2
    File size                                : 8.10 GiB
    Duration                                 : 1 h 24 min
    Overall bit rate                         : 13.7 Mb/s
    Movie name                               : CinemaniaHDD.com
    Encoded date                             : UTC 2018-05-12 03:35:11 / UTC 2018-05-11T01:02:45Z
    Writing application                      : mkvmerge v15.0.0 ('Duel with the Devil') 64-bit
    Writing library                          : libebml v1.3.5 + libmatroska v1.4.5 / Lavf57.7.2

    Video
    ID                                       : 1
    Format                                   : AVC
    Format/Info                              : Advanced Video Codec
    Format profile                           : High@L4.1
    Format settings                          : CABAC / 4 Ref Frames
    Format settings, CABAC                   : Yes
    Format settings, RefFrames               : 4 frames
    Codec ID                                 : V_MPEG4/ISO/AVC
    Duration                                 : 1 h 24 min
    Bit rate                                 : 12.7 Mb/s
    Width                                    : 1 920 pixels
    Height                                   : 1 080 pixels
    Display aspect ratio                     : 16:9
    Frame rate mode                          : Constant
    Frame rate                               : 23.976 (24000/1001) FPS
    Color space                              : YUV
    Chroma subsampling                       : 4:2:0
    Bit depth                                : 8 bits
    Scan type                                : Progressive
    Bits/(Pixel*Frame)                       : 0.256
    Stream size                              : 7.48 GiB (92%)
    Title                                    : [•REC]² (2009) Full 1080p Español
    Writing library                          : x264 core 148 r2708 86b7198
    Encoding settings                        : cabac=1 / ref=4 / deblock=1:0:0 / analyse=0x3:0x133 / me=esa / subme=9 / psy=1 / psy_rd=1.00:0.00 / mixed_ref=1 / me_range=16 / chroma_me=1 / trellis=2 / 8x8dct=1 / cqm=0 / deadzone=21,11 / fast_pskip=1 / chroma_qp_offset=-2 / threads=34 / lookahead_threads=2 / sliced_threads=0 / nr=0 / decimate=1 / interlaced=0 / bluray_compat=0 / constrained_intra=0 / bframes=3 / b_pyramid=2 / b_adapt=2 / b_bias=0 / direct=3 / weightb=1 / open_gop=0 / weightp=2 / keyint=240 / keyint_min=24 / scenecut=40 / intra_refresh=0 / rc_lookahead=60 / rc=crf / mbtree=1 / crf=20.0 / qcomp=0.60 / qpmin=0 / qpmax=69 / qpstep=4 / vbv_maxrate=62500 / vbv_bufsize=78125 / crf_max=0.0 / nal_hrd=none / filler=0 / ip_ratio=1.40 / aq=1:1.00
    Language                                 : Spanish
    Default                                  : Yes
    Forced                                   : No
    Color range                              : Limited
    Color primaries                          : BT.709
    Transfer characteristics                 : BT.709
    Matrix coefficients                      : BT.709
    Statistics Tags Issue                    : mkvmerge v15.0.0 ('Duel with the Devil') 64-bit 2018-05-12 03:35:11 / mkvmerge v15.0.0 ('Duel with the Devil') 64-bit 2018-05-12 03:35:11 / UTC 2018-05-11T01:02:45Z
    FromStats_BitRate                        : 12969228
    FromStats_Duration                       : 01:24:19.013000000
    FromStats_FrameCount                     : 121295
    FromStats_StreamSize                     : 8201437261

    Audio
    ID                                       : 2
    Format                                   : DTS
    Format/Info                              : Digital Theater Systems
    Mode                                     : 16
    Format settings, Endianness              : Big
    Codec ID                                 : A_DTS
    Duration                                 : 1 h 24 min
    Bit rate mode                            : Constant
    Bit rate                                 : 768 kb/s
    Channel(s)                               : 6 channels
    Channel positions                        : Front: L C R, Side: L R, LFE
    Sampling rate                            : 48.0 kHz
    Frame rate                               : 93.750 FPS (512 SPF)
    Bit depth                                : 16 bits
    Compression mode                         : Lossy
    Stream size                              : 463 MiB (6%)
    Language                                 : Spanish
    Default                                  : Yes
    Forced                                   : No
    Statistics Tags Issue                    : mkvmerge v15.0.0 ('Duel with the Devil') 64-bit 2018-05-12 03:35:11 / mkvmerge v15.0.0 ('Duel with the Devil') 64-bit 2018-05-12 03:35:11 / UTC 2018-05-11T01:02:45Z
    FromStats_BitRate                        : 767999
    FromStats_Duration                       : 01:24:19.051000000
    FromStats_FrameCount                     : 474286
    FromStats_StreamSize                     : 485668864

    Text
    ID                                       : 3
    Format                                   : PGS
    Muxing mode                              : zlib
    Codec ID                                 : S_HDMV/PGS
    Codec ID/Info                            : Picture based subtitle format used on BDs/HD-DVDs
    Language                                 : English
    Default                                  : No
    Forced                                   : No
    Statistics Tags Issue                    : mkvmerge v15.0.0 ('Duel with the Devil') 64-bit 2018-05-12 03:35:11 / mkvmerge v15.0.0 ('Duel with the Devil') 64-bit 2018-05-12 03:35:11 / UTC 2018-05-11T01:02:45Z
    FromStats_BitRate                        : 31615
    FromStats_Duration                       : 01:19:06.075000000
    FromStats_FrameCount                     : 2140
    FromStats_StreamSize                     : 18756437

    Menu
    00:00:00.000                             : :Chapter 1
    00:05:39.256                             : :Chapter 2
    00:12:34.128                             : :Chapter 3
    00:25:13.554                             : :Chapter 4
    00:32:17.269                             : :Chapter 5
    00:39:12.517                             : :Chapter 6
    00:43:14.801                             : :Chapter 7
    00:48:16.018                             : :Chapter 8
    00:54:41.945                             : :Chapter 9
    01:00:38.718                             : :Chapter 10
    01:10:30.518                             : :Chapter 11
    01:19:45.864                             : :Chapter 12

  • Peso: 8.10 GiB

Sinopsis

Secuela de la película [•REC] (2006), con el mismo formato de falso documental. Quince minutos desde el final de la primera parte, un grupo de policías entran en el edificio acompañados por un doctor con tal de conseguir la sangre de los infectados, en especial la de la infectada inicial que habitaba el ático, para encontrar una cura. A su vez, tres adolescentes, un bombero y un antiguo inquilino entran por el alcantarillado. Lo que ninguno sabe es que van a pasar el peor momento de su vida en cuanto se crucen con los infectados.

Ficha técnica

Video trailer de la película

Enlaces de descarga

Rip de Bluray

Descargar [•REC]² (2009) Full 1080p Español




Aportes de DPeliculasHDmega la pass es:dpeliculashdmega.org Aportes de CinemaniaHD la pass es:cinemaniahdd.com

Películas relacionadas

Comentarios 3
  • Chencho Sama - 12 mayo, 2018

    Calidad Impecable y del Audio ni se diga. Muchas Gracias.

  • Jonna - 12 mayo, 2018

    Wow! Esperando las ultimas 2 😀

  • ocpgaiden - 12 mayo, 2018

    gracias por la pelicula